Login
Username:
Password:
Remember Me:
[Signup]
[Recover Account]
Friends
BTScene
Friendly site

Free Courses Online
Friendly site

Anime RG
Friendly site

KaranPC
Friendly site

P2PDL.com
Friendly site

Free Tutorials & Courses
Friendly site
Torrent Details For "12 Monkeys - {2015} - Season 1 - Complete - X264 - Maxillion - [GloTV]"

12 Monkeys - {2015} - Season 1 - Complete - X264 - Maxillion - [GloTV]

To download this torrent, you need a BitTorrent client: Vuze or BTGuard
Download this torrent
Download using Magnet Link

Direct Download - no client needed

Download Faster - High Speed Download

Health:
Seeds: 7
Leechers: 7
Completed: 235 
Last Checked: 28-11-2015 17:23:13

Uploader Reputation points : 2408
External: Torrent




Write a Review for the Uploader:   50   Say Thanks with one good review:
Share on Facebook


Details
Name:12 Monkeys - {2015} - Season 1 - Complete - X264 - Maxillion - [GloTV]
Description:







Creators: Travis Fickett, Terry Matalas
Stars: Aaron Stanford, Amanda Schull, Noah Bean


Storyline:


Syfy has recreated Terry Gilliam's 1995 film 12 Monkeys as a television series.

By the year 2043, the human race is all but extinct. A devastating virus has ravaged the population, killing over 7 billion people. Those who have survived are either hiding underground or fighting each other for the few resources that can still be found.

Realizing that humanity's only chance to survive is to stop the epidemic before it begins, a small group of scientists attempts to pinpoint the plague's origin through fragments of old media. Then, making use of a somewhat imprecise time-travel technology that was being developed before the outbreak, they send convict James Cole more than 25 years into the past to stop the infection from being unleashed upon the world.



Format                                   : MPEG-4
Format profile                           : Base Media
Codec ID                                 : isom
Duration                                 : 46mn 46s
Overall bit rate                         : 446 Kbps
Movie name                               : 12 Monkeys
Performer                                : Maxillion
Writing application                      : Lavf56.1.0
Comment                                  : A Maxillion Encode

Video
ID                                       : 1
Format                                   : AVC
Format/Info                              : Advanced Video Codec
Format profile                           : [email protected]
Format settings, CABAC                   : Yes
Format settings, ReFrames                : 4 frames
Codec ID                                 : avc1
Codec ID/Info                            : Advanced Video Coding
Duration                                 : 46mn 46s
Bit rate                                 : 250 Kbps
Width                                    : 700 pixels
Height                                   : 400 pixels
Display aspect ratio                     : 16:9
Original display aspect ratio            : 16:9
Frame rate mode                          : Variable
Frame rate                               : 24.000 fps
Minimum frame rate                       : 23.810 fps
Maximum frame rate                       : 48.780 fps
Color space                              : YUV
Chroma subsampling                       : 4:2:0
Bit depth                                : 8 bits
Scan type                                : Progressive
Bits/(Pixel*Frame)                       : 0.037
Stream size                              : 83.6 MiB (56%)
Writing library                          : x264 core 142 r2431 a5831aa
Encoding settings                        : cabac=1 / ref=1 / deblock=1:0:0 / analyse=0x1:0x111 / me=hex / subme=2 / psy=1 / psy_rd=1.00:0.00 / mixed_ref=0 / me_range=16 / chroma_me=1 / trellis=0 / 8x8dct=0 / cqm=0 / deadzone=21,11 / fast_pskip=1 / chroma_qp_offset=0 / threads=12 / lookahead_threads=3 / sliced_threads=0 / nr=0 / decimate=1 / interlaced=0 / bluray_compat=0 / constrained_intra=0 / bframes=3 / b_pyramid=2 / b_adapt=1 / b_bias=0 / direct=1 / weightb=1 / open_gop=0 / weightp=1 / keyint=240 / keyint_min=24 / scenecut=40 / intra_refresh=0 / rc_lookahead=10 / rc=crf / mbtree=1 / crf=25.0 / qcomp=0.60 / qpmin=0 / qpmax=69 / qpstep=4 / vbv_maxrate=20000 / vbv_bufsize=25000 / crf_max=0.0 / nal_hrd=none / filler=0 / ip_ratio=1.40 / aq=1:1.00
Color primaries                          : BT.709
Transfer characteristics                 : BT.709
Matrix coefficients                      : BT.709

Audio
ID                                       : 2
Format                                   : AC-3
Format/Info                              : Audio Coding 3
Format profile                           : Dolby Digital
Mode extension                           : CM (complete main)
Format settings, Endianness              : Big
Codec ID                                 : ac-3
Duration                                 : 46mn 46s
Bit rate mode                            : Constant
Bit rate                                 : 192 Kbps
Channel(s)                               : 2 channels
Channel positions                        : Front: L R
Sampling rate                            : 32.0 KHz
Bit depth                                : 16 bits
Compression mode                         : Lossy
Stream size                              : 64.2 MiB (43%)
YouTube Video:
Category:Packs
Language:English  English
Total Size:1.69 GB
Info Hash:A49FFD2CEF7A98E03ADE31D57955919512968CC9
Added By:Maxillion
Date Added:11-04-2015 04:08:49
Torrent Status:Unverified Torrent


Ratings:Not Yet Rated (Log in to rate it)


Tracker:
udp://tracker.openbittorrent.com:80/announce

This Torrent also has backup trackers
URLSeedersLeechersCompleted
udp://tracker.openbittorrent.com:80/announce000
udp://tracker.publicbt.com:80/announce000
udp://open.demonii.com:1337/announce000
udp://tracker.glotorrents.com:6969/announce000
udp://glotorrents.com:6969/announce000
udp://glotorrents.pw:6969/announce000


File List: 





Comments
No comments still posted