Download 18+ The Devil All the Time 2020 1080p NF WEB-DL DDP5 1 x264 LLG torrent - GloDLS
Torrent Details For "18+ The Devil All the Time 2020 1080p NF WEB-DL DDP5 1 x264 LLG"

18+ The Devil All the Time 2020 1080p NF WEB-DL DDP5 1 x264 LLG

To download this torrent, you need a BitTorrent client: Vuze or BTGuard
Download this torrent
Download using Magnet Link

Health:
Seeds: 18
Leechers: 78
Completed: 22 
Last Checked: 16-09-2020 16:01:38

Uploader Reputation points : 6112
External: Torrent






Write a Review for the Uploader:   0   Say Thanks with one good review:
Share on Facebook


Details
Name:18+ The Devil All the Time 2020 1080p NF WEB-DL DDP5 1 x264 LLG
Description:

Quote:



******************************Thumbnbil:**********************




******************************Screenshots:********************

screenshot 1

screenshot 2

screenshot 3

screenshot 4

screenshot 5

screenshot 6

screenshot 7

screenshot 8

screenshot 9

screenshot 0


******************************************************

18+.The.Devil.All.the.Time.2020.1080p.NF.WEB-DL.DDP5.1.x264.LLG.mp4
Format                                   : MPEG-4
Format profile                           : Base Media
Codec ID                                 : isom (isom/iso2/avc1/mp41)
File size                                : 2.42 GiB
Duration                                 : 2 h 18 min
Overall bit rate mode                    : Variable
Overall bit rate                         : 2 493 kb/s
Writing application                      : Lavf58.29.100

Video
ID                                       : 1
Format                                   : AVC
Format/Info                              : Advanced Video Codec
Format profile                           : [email protected]
Format settings                          : CABAC / 1 Ref Frames
Format settings, CABAC                   : Yes
Format settings, Reference frames        : 1 frame
Codec ID                                 : avc1
Codec ID/Info                            : Advanced Video Coding
Duration                                 : 2 h 18 min
Bit rate mode                            : Variable
Bit rate                                 : 2 041 kb/s
Maximum bit rate                         : 6 000 kb/s
Width                                    : 1 920 pixels
Height                                   : 1 080 pixels
Display aspect ratio                     : 16:9
Frame rate mode                          : Constant
Frame rate                               : 24.000 FPS
Color space                              : YUV
Chroma subsampling                       : 4:2:0
Bit depth                                : 8 bits
Scan type                                : Progressive
Bits/(Pixel*Frame)                       : 0.041
Stream size                              : 1.98 GiB (82%)
Codec configuration box                  : avcC

Audio
ID                                       : 2
Format                                   : AC-3
Format/Info                              : Audio Coding 3
Commercial name                          : Dolby Digital
Codec ID                                 : ac-3
Duration                                 : 2 h 18 min
Bit rate mode                            : Constant
Bit rate                                 : 448 kb/s
Channel(s)                               : 6 channels
Channel layout                           : L R C LFE Ls Rs
Sampling rate                            : 48.0 kHz
Frame rate                               : 31.250 FPS (1536 SPF)
Compression mode                         : Lossy
Stream size                              : 445 MiB (18%)
Title                                    : English
Language                                 : English
Service kind                             : Complete Main
Default                                  : Yes
Alternate group                          : 1







********************************************************


YouTube Video:
Category:Movies
Language:English  English
Total Size:2.46 GB
Info Hash:801DE25389F72EB547C248FA6FB4EC8B4B340F48
Added By:LifeLongg Verified Uploader
Date Added:2020-09-16 21:54:45
Torrent Status:Torrent Verified


Ratings:Not Yet Rated (Log in to rate it)


Tracker:
udp://tracker.openbittorrent.com:80/announce

This Torrent also has backup trackers
URLSeedersLeechersCompleted
udp://tracker.openbittorrent.com:80/announce93911
udp://tracker.opentrackr.org:1337/announce000
UDP://TRACKER.LEECHERS-PARADISE.ORG:6969/ANNOUNCE000
UDP://TRACKER.COPPERSURFER.TK:6969/ANNOUNCE000
UDP://TRACKER.OPENTRACKR.ORG:1337/ANNOUNCE000
UDP://TRACKER.ZER0DAY.TO:1337/ANNOUNCE000
UDP://EDDIE4.NL:6969/ANNOUNCE000


File List: 





Comments

[Report] Posted: 16-09-2020 at 20:50:16
ernygirl

avatar

profile message
mmmmmmmmmmmmm