Login
Username:
Password:
Remember Me:
[Signup]
[Recover Account]
Friends
BTScene
Friendly site

Free Courses Online
Friendly site

Anime RG
Friendly site

KaranPC
Friendly site

P2PDL.com
Friendly site

Free Tutorials & Courses
Friendly site
Torrent Details For "3 Storeys 2018 Hindi 720p Pre DVDRip x264 AAC"

3 Storeys 2018 Hindi 720p Pre DVDRip x264 AAC

To download this torrent, you need a BitTorrent client: Vuze or BTGuard
Download this torrent
Download using Magnet Link

Direct Download - no client needed

Download Faster - High Speed Download

Health:
Seeds: 1,834
Leechers: 2,409
Completed: 4,290 
Last Checked: 12-03-2018 07:23:47

Uploader Reputation points : 4426
External: Torrent



BTGuard - BitTorrent Anonymously


Write a Review for the Uploader:   20   Say Thanks with one good review:
Share on Facebook


Details
Name:3 Storeys 2018 Hindi 720p Pre DVDRip x264 AAC
Description:




General
Format                                   : Matroska
Format version                           : Version 4 / Version 2
File size                                : 880 MiB
Duration                                 : 1 h 34 min
Overall bit rate                         : 1 308 kb/s

Video
ID                                       : 1
Format                                   : AVC
Format/Info                              : Advanced Video Codec
Format profile                           : [email protected]
Format settings                          : CABAC / 4 Ref Frames
Format settings, CABAC                   : Yes
Format settings, RefFrames               : 4 frames
Codec ID                                 : V_MPEG4/ISO/AVC
Duration                                 : 1 h 34 min
Bit rate                                 : 1 200 kb/s
Width                                    : 1 280 pixels
Height                                   : 540 pixels
Display aspect ratio                     : 2.40:1
Frame rate mode                          : Constant
Frame rate                               : 23.976 (24000/1001) FPS
Color space                              : YUV
Chroma subsampling                       : 4:2:0
Bit depth                                : 8 bits
Scan type                                : Progressive
Bits/(Pixel*Frame)                       : 0.072
Stream size                              : 814 MiB (92%)
Writing library                          : x264 core 148 r2708 86b7198
Default                                  : Yes
Forced                                   : No

Audio
ID                                       : 2
Format                                   : AAC
Format/Info                              : Advanced Audio Codec
Format profile                           : LC
Codec ID                                 : A_AAC-2
Duration                                 : 1 h 34 min
Bit rate                                 : 96.0 kb/s
Channel(s)                               : 2 channels
Channel positions                        : Front: L R
Sampling rate                            : 44.1 kHz
Frame rate                               : 43.066 FPS (1024 SPF)
Compression mode                         : Lossy
Stream size                              : 64.6 MiB (7%)
Language                                 : Hindi
Default                                  : Yes
Forced                                   : No






YouTube Video:
Category:Movies
Language:Hindi  Hindi
Total Size:880.24 MB
Info Hash:4679382E65D3E02729CAF1AAADA3BCB0879C5786
Added By:MovieFreak Verified UploaderMovie Pirate
Date Added:11-03-2018 09:15:12
Torrent Status:Torrent Verified


Ratings:Not Yet Rated (Log in to rate it)


Tracker:
udp://tracker.pirateparty.gr:6969/announce

This Torrent also has backup trackers
URLSeedersLeechersCompleted
udp://tracker.pirateparty.gr:6969/announce142226443
udp://tracker.opentrackr.org:1337/announce124192308
http://tracker.opentrackr.org/announce000
udp://tracker.vanitycore.co:6969/announce136184333
udp://public.popcorn-tracker.org:6969/announce159190294
udp://9.rarbg.to:2710/announce170190516
udp://9.rarbg.me:2710/announce170190516
udp://9.rarbg.com:2770/announce170190516
udp://inferno.demonoid.pw:3391/announce122124209
udp://tracker.internetwarriors.net:1337/announce102164126
udp://ipv4.tracker.harry.lu:80/announce33680
udp://p4p.arenabg.ch:1337/announce105160201
http://tracker.vanitycore.co:6969/announce137182333
http://public.popcorn-tracker.org:6969/announce159189294
udp://tracker.zer0day.to:1337/announce105160201


File List: 





Comments
No comments still posted