Login
Username:
Password:
Remember Me:
[Signup]
[Recover Account]
Friends
BTScene
Friendly site

Free Courses Online
Friendly site

Anime RG
Friendly site

KaranPC
Friendly site

P2PDL.com
Friendly site

Free Tutorials & Courses
Friendly site
Torrent Details For "Adult Toy Time"

Adult Toy Time

To download this torrent, you need a BitTorrent client: Vuze or BTGuard
Download this torrent
Download using Magnet Link

Direct Download - no client needed

Download Faster - High Speed Download

Health:
Seeds: 14
Leechers: 0
Completed:
Last Checked: 12-07-2018 13:45:43

Uploader Reputation points : 8362
External: Torrent




Write a Review for the Uploader:   15   Say Thanks with one good review:
Share on Facebook


Details
Name:Adult Toy Time
Description:
Starring: Ricky Flores ,  Calvin Collins

[HD] Calvin’s a little nervous at first when Ricky suggests he try out his new Fleshjack toy. But after warming him up with some great sucking skill, Calvin decides to give it a try. Ricky’s already a Flashback expert, so he slides it onto Calvin’s 8-inch dick and alternates between the toy and his own talented mouth, delivering some intense sensations to his buddy. Calvin wants to return the favor, so he deep-throats Ricky’s 9-inch meat while jacking himself. Finally, the sensations are just too much for Calvin and he explodes into the toy, his new best friend.

http://dimtus.com/img-5b4744df6c2c8.html


Format                                   : MPEG-4
Format profile                           : Base Media / Version 2
Codec ID                                 : mp42 (mp42)
File size                                : 1.02 GiB
Duration                                 : 13 min 54 s
Overall bit rate                         : 10.5 Mb/s
Codirector                               : codirector
Production studio                        : studio
ContentType                              : Unknown Type
Encoded date                             : UTC 2018-03-28 16:09:21
Tagged date                              : UTC 2018-03-28 16:09:21

Video
ID                                       : 1
Format                                   : AVC
Format/Info                              : Advanced Video Codec
Format profile                           : [email protected]
Format settings                          : 1 Ref Frames
Format settings, CABAC                   : No
Format settings, ReFrames                : 1 frame
Muxing mode                              : Container [email protected]
Codec ID                                 : avc1
Codec ID/Info                            : Advanced Video Coding
Duration                                 : 13 min 54 s
Bit rate                                 : 10.3 Mb/s
Width                                    : 1 920 pixels
Height                                   : 1 080 pixels
Display aspect ratio                     : 16:9
Frame rate mode                          : Constant
Frame rate                               : 29.970 (30000/1001) FPS
Original frame rate                      : 29.000 FPS
Color space                              : YUV
Chroma subsampling                       : 4:2:0
Bit depth                                : 8 bits
Scan type                                : Progressive
Bits/(Pixel*Frame)                       : 0.166
Stream size                              : 1.00 GiB (99%)
Language                                 : English
Encoded date                             : UTC 1952-03-27 16:09:21
Tagged date                              : UTC 1952-03-27 16:09:21

Audio
ID                                       : 2
Format                                   : AAC
Format/Info                              : Advanced Audio Codec
Format profile                           : LC
Codec ID                                 : mp4a-40-2
Duration                                 : 13 min 54 s
Bit rate mode                            : Constant
Bit rate                                 : 128 kb/s
Channel(s)                               : 2 channels
Channel positions                        : Front: L R
Sampling rate                            : 44.1 kHz
Frame rate                               : 43.066 FPS (1024 SPF)
Compression mode                         : Lossy
Stream size                              : 12.7 MiB (1%)
Title                                    : Stereo
Language                                 : English
Default                                  : Yes
Alternate group                          : 1
Encoded date                             : UTC 1952-03-27 16:09:21
Tagged date                              : UTC 1952-03-27 16:09:21
YouTube Video:
Category:Adult XXX
Language:Aucune/N/D
Total Size:1.02 GB
Info Hash:11FC5220E7E63F35ABE1A7BFA533CAA3432940D0
Added By:nata24 Verified UploaderPorn Guy
Date Added:12-07-2018 13:31:09
Torrent Status:Torrent Verified


Ratings:Not Yet Rated (Log in to rate it)


Tracker:
udp://open.stealth.si:80/announce

This Torrent also has backup trackers
URLSeedersLeechersCompleted
udp://open.stealth.si:80/announce000
udp://tracker.internetwarriors.net:1337/announce100
udp://tracker.coppersurfer.tk:6969/announce100
udp://tracker.coppersurfer.tk:6969100
udp://tracker.pirateparty.gr:6969/announce100
udp://tracker.qt.is:6969/announce100
udp://eddie4.nl:6969/announce100
udp://shadowshq.yi.org:6969/announce100
udp://tracker.leechers-paradise.org:6969/announce100
udp://tracker.vanitycore.co:6969/announce100
udp://torr.ws:2710/announce100
udp://seedbay.net:2710/announce100
udp://tracker.ds.is:6969/announce100
udp://tracker.0o.is:6969/announce100
udp://tracker.open-internet.nl:6969/announce100


File List: 





Comments
No comments still posted