Login
Username:
Password:
Remember Me:
[Signup]
[Recover Account]
Friends
BTScene
Friendly site

Ale Torrenty Team
Friendly site

Anime RG
Friendly site

KaranPC
Friendly site

P2PDL.com
Friendly site

Free Tutorials & Courses
Friendly site
Torrent Details For "Alien Armageddon 2011 720p BluRay Dual Audio English Hindi GOPISAHI"

Alien Armageddon 2011 720p BluRay Dual Audio English Hindi GOPISAHI

To download this torrent, you need a BitTorrent client: Vuze or BTGuard
Download this torrent
Download using Magnet Link

Direct Download - no client needed

Download Faster - High Speed Download

Health:
Seeds: 1
Leechers: 0
Completed:
Last Checked: 13-10-2017 11:54:40

Uploader Reputation points : 1603
External: Torrent




Write a Review for the Uploader:   5   Say Thanks with one good review:
Share on Facebook


Details
Name:Alien Armageddon 2011 720p BluRay Dual Audio English Hindi GOPISAHI
Description:

Format                         : Matroska
Format version                 : Version 4 / Version 2
File size                      : 595 MiB
Duration                       : 1 h 36 min
Overall bit rate               : 864 kb/s
Movie name                     : Alien Armageddon 2011 GOPISAHI

Video
Format                         : AVC
Codec ID                       : V_MPEG4/ISO/AVC
Duration                       : 1 h 36 min
Bit rate                       : 699 kb/s
Width                          : 1 280 pixels
Height                         : 674 pixels
Display aspect ratio           : 1.899
Frame rate mode                : Constant
Frame rate                     : 23.976 (24000/1001) FPS
Stream size                    : 481 MiB (81%)
Title                          : GOPISAHI
Writing library                : x264

Audio #1
Format                         : AAC
Duration                       : 1 h 36 min
Bit rate                       : 81.7 kb/s
Channel(s)                     : 6 channels
Channel positions              : Front: L C R, Side: L R, LFE
Sampling rate                  : 44.1 kHz
Frame rate                     : 43.066 FPS (1024 SPF)
Stream size                    : 56.2 MiB (9%)
Language                       : English

Audio #2
Format                         : AAC
Duration                       : 1 h 36 min
Bit rate                       : 82.2 kb/s
Channel(s)                     : 6 channels
Channel positions              : Front: L C R, Side: L R, LFE
Sampling rate                  : 44.1 kHz
Frame rate                     : 43.066 FPS (1024 SPF)
Stream size                    : 56.7 MiB (10%)
Title                          : GOPISAHI
Language                       : Hindi


YouTube Video:
Category:Movies
Language:Hindi  Hindi
Total Size:595.29 MB
Info Hash:699782157C77ED0276228AD19279A3CAD251B83E
Added By:GOPISAHI Verified UploaderMovie Pirate
Date Added:13-10-2017 11:54:39
Torrent Status:Torrent Verified


Ratings:Not Yet Rated (Log in to rate it)


Tracker:
http://ipv4.tracker.harry.lu/announce

This Torrent also has backup trackers
URLSeedersLeechersCompleted
http://ipv4.tracker.harry.lu/announce000
http://ipv4.tracker.harry.lu:80/announce000
http://163.172.180.68:80/announce000
http://t.nyaatracker.com/announce000
http://tracker.devil-torrents.pl:80/announce000
http://tracker.devil-torrents.pl/announce000
http://open.kickasstracker.com/announce000
http://163.172.180.68/announce000
http://t.nyaatracker.com:80/announce000
http://retracker.mgts.by:80/announce000
http://45.33.11.224/announce000
http://tracker.torrentyorg.pl:80/announce000
http://pt.lax.mx:80/announce000
udp://tracker.coppersurfer.tk:6969/announce000
udp://tracker.pirateparty.gr:6969/announce000


File List: 





Comments
No comments still posted