Login
Username:
Password:
Remember Me:
[Signup]
[Recover Account]
Friends
BTScene
Friendly site

Ale Torrenty Team
Friendly site

Anime RG
Friendly site

KaranPC
Friendly site

P2PDL.com
Friendly site

Free Tutorials & Courses
Friendly site
Torrent Details For "Arsenal.2017.HDRip.XviD.AC3-EVO[PRiME]"

Arsenal.2017.HDRip.XviD.AC3-EVO[PRiME]

To download this torrent, you need a BitTorrent client: Vuze or BTGuard
Download this torrent
Download using Magnet Link

Direct Download - no client needed

Download Faster - High Speed Download

Health:
Seeds: 20
Leechers: 358
Completed:
Last Checked: 06-01-2017 10:00:54

Uploader Reputation points : 119570
External: Torrent




Write a Review for the Uploader:   55   Say Thanks with one good review:
Share on Facebook


Details
Name:Arsenal.2017.HDRip.XviD.AC3-EVO[PRiME]
Description:

Arsenal.2017.HDRip.XviD.AC3-EVO[PRiME]

ImDb: http://www.imdb.com/title/tt1113767



Complete name                            : Arsenal.2017.HDRip.XviD.AC3-EVO[PRiME].avi
Format                                   : AVI
Format/Info                              : Audio Video Interleave
File size                                : 1.36 GiB
Duration                                 : 1 h 32 min
Overall bit rate                         : 2 105 kb/s
Writing library                          : VirtualDub build 32593/release

Video
ID                                       : 0
Format                                   : MPEG-4 Visual
Format profile                           : Advanced [email protected]
Format settings, BVOP                    : 2
Format settings, QPel                    : No
Format settings, GMC                     : No warppoints
Format settings, Matrix                  : Default (H.263)
Muxing mode                              : Packed bitstream
Codec ID                                 : XVID
Codec ID/Hint                            : XviD
Duration                                 : 1 h 32 min
Bit rate                                 : 1 711 kb/s
Width                                    : 720 pixels
Height                                   : 304 pixels
Display aspect ratio                     : 2.35:1
Frame rate                               : 23.976 (23976/1000) FPS
Color space                              : YUV
Chroma subsampling                       : 4:2:0
Bit depth                                : 8 bits
Scan type                                : Progressive
Compression mode                         : Lossy
Bits/(Pixel*Frame)                       : 0.326
Stream size                              : 1.10 GiB (81%)
Writing library                          : XviD 66

Audio
ID                                       : 1
Format                                   : AC-3
Format/Info                              : Audio Coding 3
Mode extension                           : CM (complete main)
Format settings, Endianness              : Big
Codec ID                                 : 2000
Duration                                 : 1 h 32 min
Bit rate mode                            : Constant
Bit rate                                 : 384 kb/s
Channel(s)                               : 6 channels
Channel positions                        : Front: L C R, Side: L R, LFE
Sampling rate                            : 48.0 kHz
Frame rate                               : 31.250 FPS (1536 spf)
Compression mode                         : Lossy
Stream size                              : 253 MiB (18%)
Alignment                                : Aligned on interleaves
Interleave, duration                     : 42  ms (1.00 video frame)
Interleave, preload duration             : 512  ms




Click Image To View Full Size


Click To View Screenshot
Click To View Screenshot
Click To View Screenshot

YouTube Video:
Category:Movies
Language:English  English
Total Size:1.37 GB
Info Hash:BA7199E586E60912C9DA2918AE7F40F177CE7EB1
Added By:Simmoncelli VIPMovie Pirate
Date Added:06-01-2017 09:39:22
Torrent Status:Torrent Verified


Ratings:Not Yet Rated (Log in to rate it)


Tracker:
udp://tracker.ilibr.org:6969/announce

This Torrent also has backup trackers
URLSeedersLeechersCompleted
udp://tracker.ilibr.org:6969/announce3501
udp://tracker.coppersurfer.tk:69693501
udp://tracker.ilibr.org:80/announce170
udp://tracker.coppersurfer.tk:6969/announce000
udp://tracker.leechers-paradise.org:6969/announce150
udp://tracker.opentrackr.org:1337/announce3531
udp://tracker.zer0day.to:1337/announce2501
udp://ipv4.tracker.harry.lu:80/announce1320
udp://p4p.arenabg.ch:1337/announce2320
udp://p4p.arenabg.com:1337/announce2320
udp://9.rarbg.com:2710/announce000
udp://9.rarbg.to:2710/announce000
udp://9.rarbg.me:2710/announce000
udp://explodie.org:6969/announce2290
udp://eddie4.nl:6969/announce2300


File List: 





Comments
No comments still posted