Download Avrodh (2020) Hindi S01 Complete 720p Sonyliv WEBRip ⭐2.2 GB⭐ AAC 2CH x264 - Shadow (BonsaiHD) torrent - GloDLS
Torrent Details For "Avrodh (2020) Hindi S01 Complete 720p Sonyliv WEBRip ⭐2.2 GB⭐ AAC 2CH x264 - Shad..."

Avrodh (2020) Hindi S01 Complete 720p Sonyliv WEBRip ⭐2.2 GB⭐ AAC 2CH x264 - Shad...

To download this torrent, you need a BitTorrent client: Vuze or BTGuard
Download this torrent
Download using Magnet Link

Health:
Seeds: 2,464
Leechers: 4,766
Completed: 2,286 
Last Checked: 31-07-2020 11:29:20

Uploader Reputation points : 972
External: Torrent






Write a Review for the Uploader:   5   Say Thanks with one good review:
Share on Facebook


Details
Name:Avrodh (2020) Hindi S01 Complete 720p Sonyliv WEBRip ⭐2.2 GB⭐ AAC 2CH x264 - Shad...
Description:
If You Need Best Quality in Low Size. Then This Is For You

Please Don't Stop Your Tourrent after download Complete. For seeding



Movie name :

Avrodh (2020) Hindi S01 Complete 720p Sonyliv WEBRip ⭐2.2 GB⭐ AAC 2CH x264 - Shadow (BonsaiHD)


Quote:

Storyline : It is a War Thriller based on the theme of Indian Army and Uri Surgical Strike.................

Release date : 31 July 2020 (India)

File size : 2.2 GB

Encoded by :- ⭐BonsaiHD⭐

Source :-⭐BonsaiHD⭐











General
Unique ID                                : 318128438032362712871576329846290098830 (0xEF554EF9A4E3B1EDC9A26DCEEDCFAA8E)
Complete name                            :Avrodh.S01E01.720p.Sonyliv.WEB-Rip.x264-BonsaiHD.mkv
Format                                   : Matroska
Format version                           : Version 2
File size                                : 286 MiB
Duration                                 : 35 min 53 s
Overall bit rate                         : 1 115 kb/s
Encoded date                             : UTC 2020-07-30 18:09:31
Writing application                      : mkvmerge v42.0.0 ('Overtime') 64-bit
Writing library                          : libebml v1.3.10 + libmatroska v1.5.2

Video
ID                                       : 1
Format                                   : AVC
Format/Info                              : Advanced Video Codec
Format profile                           : [email protected]
Format settings                          : CABAC / 4 Ref Frames
Format settings, CABAC                   : Yes
Format settings, Reference frames        : 4 frames
Codec ID                                 : V_MPEG4/ISO/AVC
Duration                                 : 35 min 53 s
Bit rate                                 : 1 050 kb/s
Width                                    : 1 280 pixels
Height                                   : 720 pixels
Display aspect ratio                     : 16:9
Frame rate mode                          : Constant
Frame rate                               : 25.000 FPS
Color space                              : YUV
Chroma subsampling                       : 4:2:0
Bit depth                                : 8 bits
Scan type                                : Progressive
Bits/(Pixel*Frame)                       : 0.046
Stream size                              : 269 MiB (94%)
Writing library                          : x264 core 157 r2969 d4099dd
Encoding settings                        : cabac=1 / ref=3 / deblock=1:0:0 / analyse=0x3:0x113 / me=hex / subme=7 / psy=1 / psy_rd=1.00:0.00 / mixed_ref=1 / me_range=16 / chroma_me=1 / trellis=1 / 8x8dct=1 / cqm=0 / deadzone=21,11 / fast_pskip=1 / chroma_qp_offset=-2 / threads=18 / lookahead_threads=3 / sliced_threads=0 / nr=0 / decimate=1 / interlaced=0 / bluray_compat=0 / constrained_intra=0 / bframes=3 / b_pyramid=2 / b_adapt=1 / b_bias=0 / direct=1 / weightb=1 / open_gop=0 / weightp=2 / keyint=250 / keyint_min=25 / scenecut=40 / intra_refresh=0 / rc_lookahead=40 / rc=2pass / mbtree=1 / bitrate=1050 / ratetol=1.0 / qcomp=0.60 / qpmin=0 / qpmax=69 / qpstep=4 / cplxblur=20.0 / qblur=0.5 / ip_ratio=1.40 / aq=1:1.00
Default                                  : Yes
Forced                                   : No

Audio
ID                                       : 2
Format                                   : MPEG Audio
Format version                           : Version 2
Format profile                           : Layer 3
Format settings                          : Joint stereo / MS Stereo
Codec ID                                 : A_MPEG/L3
Codec ID/Hint                            : MP3
Duration                                 : 35 min 53 s
Bit rate mode                            : Constant
Bit rate                                 : 64.0 kb/s
Channel(s)                               : 2 channels
Sampling rate                            : 24.0 kHz
Frame rate                               : 41.667 FPS (576 SPF)
Compression mode                         : Lossy
Stream size                              : 16.4 MiB (6%)
Writing library                          : LAME3.100
Encoding settings                        : -m j -V 4 -q 2 -lowpass 11 -b 64
Language                                 : English
Default                                  : Yes
Forced                                   : No


YouTube Video:
Category:TV
Language:Hindi  Hindi
Total Size:2.20 GB
Info Hash:7703111FF588D70B73CC763DAB0930B6D60FD97C
Added By:trueHD Verified Uploader
Date Added:2020-07-31 04:17:12
Torrent Status:Torrent Verified


Ratings:Not Yet Rated (Log in to rate it)


Tracker:
udp://tracker.coppersurfer.tk:6969/announce

This Torrent also has backup trackers
URLSeedersLeechersCompleted
udp://tracker.coppersurfer.tk:6969/announce212429412
udp://tracker.leechers-paradise.org:6969/announce195407413
udp://tracker.cyberia.is:6969/announce156293168
http://tracker.nyap2p.com:8080/announce6291,435239
udp://p4p.arenabg.com:1337/announce162270136
udp://explodie.org:6969/announce461130
udp://tracker.opentrackr.org:1337/announce151276165
udp://tracker.tiny-vps.com:6969/announce175311166
udp://exodus.desync.com:6969/announce124209100
udp://tracker.torrent.eu.org:451/announce200298169
udp://tracker.moeking.me:6969/announce16327089
udp://ipv4.tracker.harry.lu:80/announce441050
udp://open.stealth.si:80/announce162266188
udp://9.rarbg.to:2710/announce000
udp://opentor.org:2710/announce458441


File List: 





Comments
No comments still posted