Login
Username:
Password:
Remember Me:
[Signup]
[Recover Account]
Friends
BTScene
Friendly site

Ale Torrenty Team
Friendly site

Anime RG
Friendly site

KaranPC
Friendly site

P2PDL.com
Friendly site

Free Tutorials & Courses
Friendly site
Torrent Details For "Bad.Blood.2017.Part.4.720p.HDTV.x264-KILLERS"

Bad.Blood.2017.Part.4.720p.HDTV.x264-KILLERS

To download this torrent, you need a BitTorrent client: Vuze or BTGuard
Download this torrent
Download using Magnet Link

Direct Download - no client needed

Download Faster - High Speed Download

Health:
Seeds: 13
Leechers: 12
Completed:
Last Checked: 13-10-2017 13:01:41

Uploader Reputation points : 123802
External: Torrent




Write a Review for the Uploader:   60   Say Thanks with one good review:
Share on Facebook


Details
Name:Bad.Blood.2017.Part.4.720p.HDTV.x264-KILLERS
Description:
Bad.Blood.2017.Part.4.720p.HDTV.x264-KILLERS



Complete name                            : Bad.Blood.2017.Part.4.720p.HDTV.x264-KILLERS.mkv
Format                                   : Matroska
Format version                           : Version 4 / Version 2
File size                                : 817 MiB
Duration                                 : 44 min 4 s
Overall bit rate                         : 2 592 kb/s
Encoded date                             : UTC 2017-10-13 11:50:33
Writing application                      : mkvmerge v9.0.1 ('Obstacles') 64bit
Writing library                          : libebml v1.3.3 + libmatroska v1.4.4

Video
ID                                       : 1
Format                                   : AVC
Format/Info                              : Advanced Video Codec
Format profile                           : [email protected]
Format settings, CABAC                   : Yes
Format settings, ReFrames                : 5 frames
Codec ID                                 : V_MPEG4/ISO/AVC
Duration                                 : 44 min 4 s
Bit rate                                 : 2 156 kb/s
Width                                    : 1 280 pixels
Height                                   : 638 pixels
Display aspect ratio                     : 2.006
Frame rate mode                          : Constant
Frame rate                               : 23.976 (24000/1001) FPS
Color space                              : YUV
Chroma subsampling                       : 4:2:0
Bit depth                                : 8 bits
Scan type                                : Progressive
Bits/(Pixel*Frame)                       : 0.110
Stream size                              : 680 MiB (83%)
Writing library                          : x264 core 152 r2851 ba24899
Encoding settings                        : cabac=1 / ref=5 / deblock=1:0:0 / analyse=0x3:0x113 / me=hex / subme=8 / psy=1 / psy_rd=1.00:0.00 / mixed_ref=1 / me_range=16 / chroma_me=1 / trellis=2 / 8x8dct=1 / cqm=0 / deadzone=21,11 / fast_pskip=1 / chroma_qp_offset=-2 / threads=20 / lookahead_threads=3 / sliced_threads=0 / nr=0 / decimate=1 / interlaced=0 / bluray_compat=0 / constrained_intra=0 / bframes=3 / b_pyramid=2 / b_adapt=1 / b_bias=0 / direct=3 / weightb=1 / open_gop=0 / weightp=2 / keyint=250 / keyint_min=23 / scenecut=40 / intra_refresh=0 / rc_lookahead=50 / rc=crf / mbtree=1 / crf=18.0 / qcomp=0.60 / qpmin=0 / qpmax=69 / qpstep=4 / ip_ratio=1.40 / aq=1:1.00
Default                                  : Yes
Forced                                   : No
Color range                              : Limited
Matrix coefficients                      : BT.709

Audio
ID                                       : 2
Format                                   : AC-3
Format/Info                              : Audio Coding 3
Format settings, Endianness              : Big
Codec ID                                 : A_AC3
Duration                                 : 44 min 4 s
Bit rate mode                            : Constant
Bit rate                                 : 384 kb/s
Channel(s)                               : 6 channels
Channel positions                        : Front: L C R, Side: L R, LFE
Sampling rate                            : 48.0 kHz
Frame rate                               : 31.250 FPS (1536 spf)
Bit depth                                : 16 bits
Compression mode                         : Lossy
Stream size                              : 121 MiB (15%)
Service kind                             : Complete Main
Default                                  : Yes
Forced                                   : No






Click To View Screenshot

Click To View Screenshot

Click To View Screenshot
YouTube Video:
Category:TV
Language:English  English
Total Size:816.83 MB
Info Hash:C260EC04A9B0427B2BBBFA9EA145B6CC0D589121
Added By:Simmoncelli VIPMovie Pirate
Date Added:13-10-2017 12:56:34
Torrent Status:Torrent Verified


Ratings:Not Yet Rated (Log in to rate it)


Tracker:
udp://tracker.coppersurfer.tk:6969/announce

This Torrent also has backup trackers
URLSeedersLeechersCompleted
udp://tracker.coppersurfer.tk:6969/announce110
udp://tracker.pirateparty.gr:6969/announce110
udp://shadowshq.yi.org:6969/announce110
udp://eddie4.nl:6969/announce110
udp://tracker.leechers-paradise.org:6969/announce110
udp://tracker.opentrackr.org:1337/announce110
udp://p4p.arenabg.ch:1337/announce110
udp://p4p.arenabg.com:1337/announce110
udp://9.rarbg.me:2710/announce110
udp://9.rarbg.to:2710/announce110
udp://ipv4.tracker.harry.lu:80/announce100
udp://tracker.grepler.com:6969/announce000
udp://public.popcorn-tracker.org:6969/announce110
udp://tracker.opentrackr.org:1337/announce110
udp://tracker.zer0day.to:1337/announce000


File List: 





Comments
No comments still posted