Login
Username:
Password:
Remember Me:
[Signup]
[Recover Account]
Friends
BTScene
Friendly site

Free Courses Online
Friendly site

Anime RG
Friendly site

KaranPC
Friendly site

P2PDL.com
Friendly site

Free Tutorials & Courses
Friendly site
Torrent Details For "Badmaash (2018) 720p Hindi Dubbed HDRip x264 AAC by Full4movies"

Badmaash (2018) 720p Hindi Dubbed HDRip x264 AAC by Full4movies

To download this torrent, you need a BitTorrent client: Vuze or BTGuard
Download this torrent
Download using Magnet Link

Direct Download - no client needed

Download Faster - High Speed Download

Health:
Seeds: 188
Leechers: 308
Completed: 304 
Last Checked: 15-06-2018 06:18:59

Uploader Reputation points : 1694
External: Torrent



BTGuard - BitTorrent Anonymously


Write a Review for the Uploader:   0   Say Thanks with one good review:
Share on Facebook


Details
Name:Badmaash (2018) 720p Hindi Dubbed HDRip x264 AAC by Full4movies
Description:


General
Complete name                  : Badmaash (2018) 720p Hindi Dubbed HDRip x264 AAC by Full4movies.mkv
Format                         : Matroska
Format version                 : Version 4 / Version 2
File size                      : 991 MiB
Duration                       : 1 h 38 min
Overall bit rate               : 1 402 kb/s
Movie name                     : www.Full4movies.co
Encoded date                   : UTC 2018-06-13 07:46:35
Writing application            : mkvmerge v8.1.0 ('Psychedelic Postcard') 32bit
Writing library                : libebml v1.3.1 + libmatroska v1.4.2

Video
ID                             : 1
Format                         : AVC
Format/Info                    : Advanced Video Codec
Format profile                 : [email protected]
Format settings, CABAC         : Yes
Format settings, RefFrames     : 3 frames
Codec ID                       : V_MPEG4/ISO/AVC
Duration                       : 1 h 38 min
Bit rate                       : 1 274 kb/s
Width                          : 1 280 pixels
Height                         : 720 pixels
Display aspect ratio           : 16:9
Frame rate mode                : Constant
Frame rate                     : 25.000 FPS
Color space                    : YUV
Chroma subsampling             : 4:2:0
Bit depth                      : 8 bits
Scan type                      : Progressive
Bits/(Pixel*Frame)             : 0.055
Stream size                    : 901 MiB (91%)
Default                        : Yes
Forced                         : No
Color range                    : Limited
Color primaries                : BT.709
Transfer characteristics       : BT.709
Matrix coefficients            : BT.709

Audio
ID                             : 2
Format                         : AAC
Format/Info                    : Advanced Audio Codec
Format profile                 : LC
Codec ID                       : A_AAC
Duration                       : 1 h 38 min
Bit rate                       : 126 kb/s
Channel(s)                     : 2 channels
Channel positions              : Front: L R
Sampling rate                  : 44.1 kHz
Frame rate                     : 43.066 FPS (1024 SPF)
Compression mode               : Lossy
Stream size                    : 88.8 MiB (9%)
Language                       : Hindi
Default                        : Yes
Forced                         : No

Screen Shoots
YouTube Video:   
Category:Movies
Language:Hindi  Hindi
Total Size:991.29 MB
Info Hash:8ADBC1654D0ABBF5B85C17B5DB24475407984C11
Added By:india4movie Verified Uploader
Date Added:14-06-2018 14:32:31
Torrent Status:Torrent Verified


Ratings:Not Yet Rated (Log in to rate it)


Tracker:
udp://tracker.coppersurfer.tk:6969/announce

This Torrent also has backup trackers
URLSeedersLeechersCompleted
udp://tracker.coppersurfer.tk:6969/announce163150
udp://tracker.opentrackr.org:1337/announce233242
udp://9.rarbg.me:2710/announce152422
udp://tracker.torrent.eu.org:451/announce142216
udp://open.stealth.si:80/announce5110
udp://public.popcorn-tracker.org:6969/announce13198
udp://p4p.arenabg.ch:1337/announce000
udp://tracker.zer0day.to:1337/announce000
udp://tracker.pirateparty.gr:6969/announce173051
udp://tracker.leechers-paradise.org:6969/announce132420
udp://tracker.tiny-vps.com:6969/announce142414
udp://bt.firebit.co.uk:6969/announce132420
udp://inferno.demonoid.pw:3397/announce162019
udp://shadowshq.yi.org:6969/announce132420
udp://9.rarbg.to:2780/announce162322


File List: 





Comments
No comments still posted