Login
Username:
Password:
Remember Me:
[Signup]
[Recover Account]
Friends
BTScene
Friendly site

Ale Torrenty Team
Friendly site

Anime RG
Friendly site

KaranPC
Friendly site

P2PDL.com
Friendly site

Free Tutorials & Courses
Friendly site
Torrent Details For "Band.of.Robbers.2015.iNTERNAL.BDRip.x264-LiBRARiANS[PRiME]"

Band.of.Robbers.2015.iNTERNAL.BDRip.x264-LiBRARiANS[PRiME]

To download this torrent, you need a BitTorrent client: Vuze or BTGuard
Download this torrent
Download using Magnet Link

Direct Download - no client needed

Download Faster - High Speed Download

Health:
Seeds: 13
Leechers: 0
Completed:
Last Checked: 17-02-2017 16:00:11

Uploader Reputation points : 101352
External: Torrent




Write a Review for the Uploader:   50   Say Thanks with one good review:
Share on Facebook


Details
Name:Band.of.Robbers.2015.iNTERNAL.BDRip.x264-LiBRARiANS[PRiME]
Description:

Band.of.Robbers.2015.iNTERNAL.BDRip.x264-LiBRARiANS[PRiME]

ImDb: http://www.imdb.com/title/tt4048668



Complete name                            : Band.of.Robbers.2015.iNTERNAL.BDRip.x264-LiBRARiANS[PRiME].mkv
Format                                   : Matroska
Format version                           : Version 4 / Version 2
File size                                : 493 MiB
Duration                                 : 1 h 35 min
Overall bit rate                         : 721 kb/s
Encoded date                             : UTC 2017-02-17 14:53:00
Writing application                      : mkvmerge v9.8.0 ('Kuglblids') 64bit
Writing library                          : libebml v1.3.4 + libmatroska v1.4.5

Video
ID                                       : 1
Format                                   : AVC
Format/Info                              : Advanced Video Codec
Format profile                           : [email protected]
Format settings, CABAC                   : Yes
Format settings, ReFrames                : 5 frames
Codec ID                                 : V_MPEG4/ISO/AVC
Duration                                 : 1 h 35 min
Bit rate                                 : 584 kb/s
Width                                    : 720 pixels
Height                                   : 302 pixels
Display aspect ratio                     : 2.40:1
Frame rate mode                          : Constant
Frame rate                               : 23.976 (24000/1001) FPS
Color space                              : YUV
Chroma subsampling                       : 4:2:0
Bit depth                                : 8 bits
Scan type                                : Progressive
Bits/(Pixel*Frame)                       : 0.112
Stream size                              : 399 MiB (81%)
Writing library                          : x264 core 148 r2744 b97ae06
Encoding settings                        : cabac=1 / ref=5 / deblock=1:-3:-3 / analyse=0x3:0x113 / me=umh / subme=8 / psy=1 / psy_rd=1.00:0.25 / mixed_ref=1 / me_range=24 / chroma_me=1 / trellis=2 / 8x8dct=1 / cqm=0 / deadzone=21,11 / fast_pskip=1 / chroma_qp_offset=-4 / threads=9 / lookahead_threads=1 / sliced_threads=0 / nr=0 / decimate=1 / interlaced=0 / bluray_compat=0 / constrained_intra=0 / bframes=3 / b_pyramid=2 / b_adapt=1 / b_bias=0 / direct=3 / weightb=1 / open_gop=0 / weightp=2 / keyint=240 / keyint_min=24 / scenecut=40 / intra_refresh=0 / rc_lookahead=50 / rc=crf / mbtree=1 / crf=19.0 / qcomp=0.60 / qpmin=0 / qpmax=69 / qpstep=4 / ip_ratio=1.40 / aq=1:0.75
Default                                  : Yes
Forced                                   : No
Color range                              : Limited
Matrix coefficients                      : BT.709

Audio
ID                                       : 2
Format                                   : AAC
Format/Info                              : Advanced Audio Codec
Format profile                           : LC
Codec ID                                 : A_AAC
Duration                                 : 1 h 35 min
Bit rate                                 : 135 kb/s
Channel(s)                               : 2 channels
Channel positions                        : Front: L R
Sampling rate                            : 48.0 kHz
Frame rate                               : 46.875 FPS (1024 spf)
Compression mode                         : Lossy
Delay relative to video                  : 9 ms
Stream size                              : 92.4 MiB (19%)
Language                                 : English
Default                                  : Yes
Forced                                   : No

Menu
00:00:00.000                             : en:00:00:00.000
00:09:08.798                             : en:00:09:08.798
00:18:28.858                             : en:00:18:28.858
00:27:16.009                             : en:00:27:16.009
00:37:11.813                             : en:00:37:11.813
00:47:09.744                             : en:00:47:09.744
00:58:58.243                             : en:00:58:58.243
01:09:52.063                             : en:01:09:52.063
01:22:10.008                             : en:01:22:10.008
01:29:27.863                             : en:01:29:27.863




Click Image To View Full Size


Click To View Screenshot
Click To View Screenshot
Click To View Screenshot

YouTube Video:
Category:Movies
Language:English  English
Total Size:492.70 MB
Info Hash:87E8F7AEF907B2616920CA708651B684FAF9ACB6
Added By:Simmoncelli VIPMovie Pirate
Date Added:17-02-2017 15:58:15
Torrent Status:Torrent Verified


Ratings:Not Yet Rated (Log in to rate it)


Tracker:
udp://tracker.ilibr.org:6969/announce

This Torrent also has backup trackers
URLSeedersLeechersCompleted
udp://tracker.ilibr.org:6969/announce100
udp://tracker.coppersurfer.tk:6969100
udp://tracker.ilibr.org:80/announce100
udp://tracker.coppersurfer.tk:6969/announce100
udp://tracker.leechers-paradise.org:6969/announce100
udp://tracker.opentrackr.org:1337/announce100
udp://tracker.zer0day.to:1337/announce100
udp://ipv4.tracker.harry.lu:80/announce100
udp://p4p.arenabg.ch:1337/announce100
udp://p4p.arenabg.com:1337/announce100
udp://9.rarbg.com:2710/announce000
udp://9.rarbg.to:2710/announce100
udp://9.rarbg.me:2710/announce100
udp://explodie.org:6969/announce100
udp://eddie4.nl:6969/announce000


File List: 





Comments
No comments still posted