Login
Username:
Password:
Remember Me:
[Signup]
[Recover Account]
Friends
BTScene
Friendly site

Free Courses Online
Friendly site

Anime RG
Friendly site

KaranPC
Friendly site

P2PDL.com
Friendly site

Free Tutorials & Courses
Friendly site
Torrent Details For "Before Someone Gets Hurt (2018) HDRip x264 AAC by Full4movies"

Before Someone Gets Hurt (2018) HDRip x264 AAC by Full4movies

To download this torrent, you need a BitTorrent client: Vuze or BTGuard
Download this torrent
Download using Magnet Link

Direct Download - no client needed

Download Faster - High Speed Download

Health:
Seeds: 12
Leechers: 30
Completed: 14 
Last Checked: 12-07-2018 18:03:41

Uploader Reputation points : 1436
External: Torrent




Write a Review for the Uploader:   0   Say Thanks with one good review:
Share on Facebook


Details
Name:Before Someone Gets Hurt (2018) HDRip x264 AAC by Full4movies
Description:


General
Complete name                  : Before Someone Gets Hurt (2018) HDRip x264 AAC by Full4movies.mkv
Format                         : Matroska
Format version                 : Version 4 / Version 2
File size                      : 448 MiB
Duration                       : 1 h 25 min
Overall bit rate               : 732 kb/s
Movie name                     : www.Full4movies.co
Encoded date                   : UTC 2018-07-11 15:31:52
Writing application            : mkvmerge v8.1.0 ('Psychedelic Postcard') 32bit
Writing library                : libebml v1.3.1 + libmatroska v1.4.2

Video
ID                             : 1
Format                         : AVC
Format/Info                    : Advanced Video Codec
Format profile                 : [email protected]
Format settings, CABAC         : Yes
Format settings, RefFrames     : 5 frames
Codec ID                       : V_MPEG4/ISO/AVC
Duration                       : 1 h 25 min
Bit rate                       : 640 kb/s
Width                          : 720 pixels
Height                         : 400 pixels
Display aspect ratio           : 16:9
Frame rate mode                : Constant
Frame rate                     : 23.976 FPS
Color space                    : YUV
Chroma subsampling             : 4:2:0
Bit depth                      : 8 bits
Scan type                      : Progressive
Bits/(Pixel*Frame)             : 0.093
Stream size                    : 387 MiB (86%)
Writing library                : x264 core 148 r2643 5c65704
Default                        : Yes
Forced                         : No

Audio
ID                             : 2
Format                         : AAC
Format/Info                    : Advanced Audio Codec
Format profile                 : LC
Codec ID                       : A_AAC
Duration                       : 1 h 25 min
Bit rate                       : 96.0 kb/s
Channel(s)                     : 2 channels
Channel positions              : Front: L R
Sampling rate                  : 48.0 kHz
Frame rate                     : 46.875 FPS (1024 SPF)
Compression mode               : Lossy
Delay relative to video        : -21 ms
Stream size                    : 59.3 MiB (13%)
Language                       : English
Default                        : Yes
Forced                         : No

Screen Shoots
YouTube Video:   
Category:Movies
Language:English  English
Total Size:447.82 MB
Info Hash:BF085C61CD6EA05EE335508FA152A24408B4CD6C
Added By:india4movie Verified Uploader
Date Added:12-07-2018 17:10:26
Torrent Status:Torrent Verified


Ratings:Not Yet Rated (Log in to rate it)


Tracker:
udp://tracker.coppersurfer.tk:6969/announce

This Torrent also has backup trackers
URLSeedersLeechersCompleted
udp://tracker.coppersurfer.tk:6969/announce121
udp://tracker.opentrackr.org:1337/announce131
udp://9.rarbg.me:2710/announce122
udp://tracker.torrent.eu.org:451/announce131
udp://open.stealth.si:80/announce131
udp://public.popcorn-tracker.org:6969/announce131
udp://p4p.arenabg.ch:1337/announce000
udp://tracker.zer0day.to:1337/announce000
udp://tracker.pirateparty.gr:6969/announce121
udp://tracker.leechers-paradise.org:6969/announce000
udp://tracker.tiny-vps.com:6969/announce131
udp://bt.firebit.co.uk:6969/announce121
udp://inferno.demonoid.pw:3397/announce131
udp://shadowshq.yi.org:6969/announce121
udp://9.rarbg.to:2780/announce122


File List: 





Comments
No comments still posted