Download Berlin - Transcendance (2019) [24bit Hi-Res] torrent - GloDLS
Torrent Details For "Berlin - Transcendance (2019) [24bit Hi-Res]"

Berlin - Transcendance (2019) [24bit Hi-Res]

To download this torrent, you need a BitTorrent client: Vuze or BTGuard
Download this torrent
Download using Magnet Link

Health:
Seeds: 0
Leechers: 0
Completed:
Last Checked: 08-08-2019 16:24:24

Uploader Reputation points : 502
External: Torrent






Write a Review for the Uploader:   5   Say Thanks with one good review:
Share on Facebook


Details
Name:Berlin - Transcendance (2019) [24bit Hi-Res]
Description:


Quality-Lossless
Release-2019
Duration-00:36:56
File Size-470.7 MB
Genre-New Wave
Cover Size-1400px

?----------------------------------------------------------------------------------------------
Analyzed: Transcendance /  Artist: Berlin
----------------------------------------------------------------------------------------------
DR Peak RMS Duration Title [codec]
----------------------------------------------------------------------------------------------
DR7 -0.00 dB -7.78 dB 3:37 01 - I Want You [flac]
DR5 -0.00 dB -5.70 dB 3:02 02 - Show Me Tonight [flac]
DR5 -0.00 dB -8.25 dB 3:37 03 - Transcendance [flac]
DR5 -0.00 dB -6.78 dB 3:04 04 - Lust [flac]
DR5 -0.00 dB -8.76 dB 4:07 05 - On My Knees [flac]
DR5 -0.00 dB -6.37 dB 4:20 06 - Sex (I'm A…) [flac]
DR6 -0.00 dB -8.29 dB 3:18 07 - No One Left Alive [flac]
DR6 -0.00 dB -7.03 dB 4:42 08 - All for Love [flac]
DR6 -0.00 dB -7.84 dB 3:56 09 - In My Heart [flac]
DR6 -0.00 dB -11.28 dB 3:08 10 - Majesty [flac]
----------------------------------------------------------------------------------------------
Number of files:    10
Official DR value:  DR6

Sampling rate: 44100 Hz
Average bitrate: 1691kbs
Bits per sample: 24 bit
YouTube Video:
Category:Music
Language:Aucune/N/D
Total Size:448.88 MB
Info Hash:AB58D05C0D41F3EF67F52824BA3135D09FC45837
Added By:was95was Verified UploaderMusic Lover
Date Added:2019-08-08 23:24:21
Torrent Status:Torrent Verified


Ratings:Not Yet Rated (Log in to rate it)


Tracker:
udp://tracker.piratepublic.com:1337/announce

This Torrent also has backup trackers
URLSeedersLeechersCompleted
udp://tracker.piratepublic.com:1337/announce000
udp://tracker.pirateparty.gr:6969/announce000
udp://tracker.coppersurfer.tk:6969/announce000
udp://tracker.leechers-paradise.org:6969/announce000
udp://9.rarbg.com:2710/announce000
http://p4p.arenabg.com:1337/announce000
http://explodie.org:6969/announce000
udp://tracker.opentrackr.org:1337/announce000
udp://exodus.desync.com:6969/announce000
udp://tracker.leechers-paradise.org:6969/announce000
udp://tracker.zer0day.to:1337/announce000
udp://open.demonii.si:1337/announce000
udp://exodus.desync.com:6969/announce000
udp://tracker.iamhansen.xyz:2000/announce000


File List: 





Comments
No comments still posted