Login
Username:
Password:
Remember Me:
[Signup]
[Recover Account]
Friends
BTScene
Friendly site

Free Courses Online
Friendly site

Anime RG
Friendly site

KaranPC
Friendly site

P2PDL.com
Friendly site

Free Tutorials & Courses
Friendly site
Torrent Details For "Black Panther 2018 NEW PROPER HD-TS X264 MP3 128Kbps LLG"

Black Panther 2018 NEW PROPER HD-TS X264 MP3 128Kbps LLG

To download this torrent, you need a BitTorrent client: Vuze or BTGuard
Download this torrent
Download using Magnet Link

Direct Download - no client needed

Download Faster - High Speed Download

Health:
Seeds: 0
Leechers: 0
Completed:
Last Checked: 16-04-2018 21:30:05

Uploader Reputation points : 1420
External: Torrent




Write a Review for the Uploader:   0   Say Thanks with one good review:
Share on Facebook


Details
Name:Black Panther 2018 NEW PROPER HD-TS X264 MP3 128Kbps LLG
Description:




******************************Thumbnail:**********************



******************************Screenshots:********************

Screenshot 1

Screenshot 2

Screenshot 3

Screenshot 4

Screenshot 5

Screenshot 6

Screenshot 7

Screenshot 8

Screenshot 9

Screenshot 0

**************************************************************

Complete name                            : Black.Panther.2018.NEW.PROPER.HD-TS.X264.MP3.128Kbps.LLG.mp4
Format                                   : MPEG-4
Format profile                           : Base Media
Codec ID                                 : isom (isom/iso2/avc1/mp41)
File size                                : 1.16 GiB
Duration                                 : 2 h 4 min
Overall bit rate                         : 1 332 kb/s
Writing application                      : Lavf57.56.101

Video
ID                                       : 1
Format                                   : AVC
Format/Info                              : Advanced Video Codec
Format profile                           : [email protected]
Format settings                          : CABAC / 4 Ref Frames
Format settings, CABAC                   : Yes
Format settings, RefFrames               : 4 frames
Codec ID                                 : avc1
Codec ID/Info                            : Advanced Video Coding
Duration                                 : 2 h 4 min
Bit rate                                 : 1 200 kb/s
Width                                    : 720 pixels
Height                                   : 320 pixels
Display aspect ratio                     : 2.25:1
Frame rate mode                          : Constant
Frame rate                               : 23.976 (23976/1000) FPS
Color space                              : YUV
Chroma subsampling                       : 4:2:0
Bit depth                                : 8 bits
Scan type                                : Progressive
Bits/(Pixel*Frame)                       : 0.217
Stream size                              : 1.04 GiB (90%)


Audio
ID                                       : 2
Format                                   : MPEG Audio
Format version                           : Version 1
Format profile                           : Layer 3
Format settings                          : Joint stereo / MS Stereo
Codec ID                                 : mp4a-6B
Duration                                 : 2 h 4 min
Bit rate mode                            : Constant
Bit rate                                 : 128 kb/s
Channel(s)                               : 2 channels
Sampling rate                            : 44.1 kHz
Compression mode                         : Lossy
Stream size                              : 114 MiB (10%)
Writing library                          : LAME3.99.5
Default                                  : Yes
Alternate group                          : 1

YouTube Video:
Category:Movies
Language:English  English
Total Size:1.17 GB
Info Hash:3F6710DC471EFE64C4C6F60EFC5362C62CDF6072
Added By:LifeLongg Verified Uploader
Date Added:16-04-2018 21:29:04
Torrent Status:Torrent Verified


Ratings:Not Yet Rated (Log in to rate it)


Tracker:
udp://tracker.openbittorrent.com:80/announce

This Torrent also has backup trackers
URLSeedersLeechersCompleted
udp://tracker.openbittorrent.com:80/announce000
udp://tracker.opentrackr.org:1337/announce000
UDP://TRACKER.LEECHERS-PARADISE.ORG:6969/ANNOUNCE000
UDP://TRACKER.COPPERSURFER.TK:6969/ANNOUNCE000
UDP://TRACKER.OPENTRACKR.ORG:1337/ANNOUNCE000
UDP://TRACKER.ZER0DAY.TO:1337/ANNOUNCE000
UDP://EDDIE4.NL:6969/ANNOUNCE000


File List: 





Comments
No comments still posted