Download Bloodshot (2020) 720p AMZN WEBRip Dual Audio [Hindi + English] ESub [950 MB] x264 - Shadow torrent - GloDLS
Torrent Details For "Bloodshot (2020) 720p AMZN WEBRip Dual Audio [Hindi + English] ESub [950 MB] x264 - S..."

Bloodshot (2020) 720p AMZN WEBRip Dual Audio [Hindi + English] ESub [950 MB] x264 - S...

To download this torrent, you need a BitTorrent client: Vuze or BTGuard
Download this torrent
Download using Magnet Link

Health:
Seeds: 8,380
Leechers: 3,366
Completed: 59,802 
Last Checked: 30-03-2020 10:30:44

Uploader Reputation points : 476
External: Torrent






Write a Review for the Uploader:   5   Say Thanks with one good review:
Share on Facebook


Details
Name:Bloodshot (2020) 720p AMZN WEBRip Dual Audio [Hindi + English] ESub [950 MB] x264 - S...
Description:

Movie name :

Bloodshot (2020) 720p AMZN WEBRip Dual Audio [Hindi + English] ESub [950 MB] x264 - Shadow


Quote:

*PiRATES_NEVER_DiE!*

*We Just go ON and On and On...FOREVER!*

We Team @Shadow Requests all our lovely fans kindly be home and enjoy our releases.Be safe and enjoy


कोरोना से बचाव:
घर पर फिल्में देखें। घर में रहें, सुरक्षित रहें। सरकार द्वारा दिए गए सभी दिशानिर्देशों और सावधानियों का जरूर पालन करें।


Fight Corona:
Watch movies at home. Stay Home, Stay Safe. Must Follow All the guidelines and precautions advised by the Government.

Thank you


Quote:

Storyline : Ray Garrison, a slain soldier, is re-animated with superpowers.

Release date : 11 March 2020 (UK)

File size : 971 MB

Encoded by ⭐Shadow⭐

Source :- TamilRockers











General
Unique ID                                : 37733050471464416176269149509846288406 (0x1C631F05A0703ED793C9B28F9E9BC816)
Complete name                            : Bloodshot (2020) 720p AMZN WEBRip Dual Audio [Hindi + English] ESub [950 MB] x264 - Shadow.mkv
Format                                   : Matroska
Format version                           : Version 4
File size                                : 971 MiB
Duration                                 : 1 h 49 min
Overall bit rate mode                    : Variable
Overall bit rate                         : 1 240 kb/s
Movie name                               : @Shadow
Encoded date                             : UTC 2020-03-24 07:39:38
Writing application                      : mkvmerge v31.0.0 ('Dolores In A Shoestand') 64-bit
Writing library                          : libebml v1.3.6 + libmatroska v1.4.9

Video
ID                                       : 1
Format                                   : AVC
Format/Info                              : Advanced Video Codec
Format profile                           : [email protected]
Format settings                          : CABAC / 4 Ref Frames
Format settings, CABAC                   : Yes
Format settings, Reference frames        : 4 frames
Codec ID                                 : V_MPEG4/ISO/AVC
Duration                                 : 1 h 49 min
Bit rate                                 : 966 kb/s
Width                                    : 1 280 pixels
Height                                   : 528 pixels
Display aspect ratio                     : 2.40:1
Frame rate mode                          : Constant
Frame rate                               : 23.976 (24000/1001) FPS
Color space                              : YUV
Chroma subsampling                       : 4:2:0
Bit depth                                : 8 bits
Scan type                                : Progressive
Bits/(Pixel*Frame)                       : 0.060
Stream size                              : 743 MiB (76%)
Title                                    : @Shadow
Writing library                          : x264 core 157 r2935 545de2f
Encoding settings                        : cabac=1 / ref=1 / deblock=1:0:0 / analyse=0x3:0x113 / me=hex / subme=2 / psy=1 / psy_rd=1.00:0.00 / mixed_ref=0 / me_range=16 / chroma_me=1 / trellis=0 / 8x8dct=1 / cqm=0 / deadzone=21,11 / fast_pskip=1 / chroma_qp_offset=0 / threads=16 / lookahead_threads=4 / sliced_threads=0 / nr=0 / decimate=1 / interlaced=0 / bluray_compat=0 / constrained_intra=0 / bframes=3 / b_pyramid=2 / b_adapt=1 / b_bias=0 / direct=1 / weightb=1 / open_gop=0 / weightp=1 / keyint=240 / keyint_min=23 / scenecut=40 / intra_refresh=0 / rc_lookahead=10 / rc=abr / mbtree=1 / bitrate=966 / ratetol=1.0 / qcomp=0.60 / qpmin=0 / qpmax=69 / qpstep=4 / ip_ratio=1.40 / aq=1:1.00
Language                                 : English
Default                                  : Yes
Forced                                   : No

Audio #1
ID                                       : 2
Format                                   : MPEG Audio
Format version                           : Version 1
Format profile                           : Layer 3
Format settings                          : Joint stereo / MS Stereo
Codec ID                                 : A_MPEG/L3
Codec ID/Hint                            : MP3
Duration                                 : 1 h 49 min
Bit rate mode                            : Variable
Bit rate                                 : 96.0 kb/s
Channel(s)                               : 2 channels
Sampling rate                            : 44.1 kHz
Frame rate                               : 38.281 FPS (1152 SPF)
Compression mode                         : Lossy
Stream size                              : 76.4 MiB (8%)
Title                                    : @Shadow
Writing library                          : LAME3.99r
Encoding settings                        : -m j -V 4 -q 3 -lowpass 15.1 --abr 96
Language                                 : Hindi
Default                                  : Yes
Forced                                   : Yes

Audio #2
ID                                       : 3
Format                                   : AC-3
Format/Info                              : Audio Coding 3
Commercial name                          : Dolby Digital
Codec ID                                 : A_AC3
Duration                                 : 1 h 49 min
Bit rate mode                            : Constant
Bit rate                                 : 192 kb/s
Channel(s)                               : 6 channels
Channel layout                           : L R C LFE Ls Rs
Sampling rate                            : 44.1 kHz
Frame rate                               : 28.711 FPS (1536 SPF)
Compression mode                         : Lossy
Stream size                              : 150 MiB (15%)
Title                                    : @Shadow
Language                                 : English
Service kind                             : Complete Main
Default                                  : No
Forced                                   : No

Text #1
ID                                       : 4
Format                                   : UTF-8
Codec ID                                 : S_TEXT/UTF8
Codec ID/Info                            : UTF-8 Plain Text
Duration                                 : 1 h 47 min
Bit rate                                 : 53 b/s
Count of elements                        : 1493
Stream size                              : 42.0 KiB (0%)
Title                                    : @Shadow
Language                                 : English
Default                                  : Yes
Forced                                   : No

Text #2
ID                                       : 5
Format                                   : UTF-8
Codec ID                                 : S_TEXT/UTF8
Codec ID/Info                            : UTF-8 Plain Text
Duration                                 : 1 h 41 min
Bit rate                                 : 46 b/s
Count of elements                        : 1140
Stream size                              : 34.6 KiB (0%)
Title                                    : @Shadow
Language                                 : English
Default                                  : No
Forced                                   : No

YouTube Video:
Category:Movies
Language:Dubs/Dual Audio
Total Size:971.22 MB
Info Hash:2B354A07C768AA8A509B2246DF86016104EA9964
Added By:trueHD Verified Uploader
Date Added:2020-03-24 16:20:06
Torrent Status:Torrent Verified


Ratings:Not Yet Rated (Log in to rate it)


Tracker:
udp://tracker.coppersurfer.tk:6969/announce

This Torrent also has backup trackers
URLSeedersLeechersCompleted
udp://tracker.coppersurfer.tk:6969/announce1,4307022,654
udp://tracker.opentrackr.org:1337/announce000
udp://tracker.torrent.eu.org:451/announce1,24338111,053
udp://tracker.cyberia.is:6969/announce9713335,868
udp://tracker.leechers-paradise.org:6969/announce1,20248911,280
udp://9.rarbg.me:2910/announce1,03940218,154
udp://tracker.internetwarriors.net:1337/announce000
udp://tracker.pirateparty.gr:6969/announce1,4317032,654
udp://tracker.tiny-vps.com:6969/announce1,0643568,139
udp://9.rarbg.me:2720/announce000


File List: 





Comments
No comments still posted