Login
Username:
Password:
Remember Me:
[Signup]
[Recover Account]
Friends
BTScene
Friendly site

Free Courses Online
Friendly site

Anime RG
Friendly site

KaranPC
Friendly site

P2PDL.com
Friendly site

Free Tutorials & Courses
Friendly site
Torrent Details For "Break Night 2017 720p BluRay x264 AAC"

Break Night 2017 720p BluRay x264 AAC

To download this torrent, you need a BitTorrent client: Vuze or BTGuard
Download this torrent
Download using Magnet Link

Direct Download - no client needed

Download Faster - High Speed Download

Health:
Seeds: 393
Leechers: 418
Completed: 574 
Last Checked: 12-01-2018 18:15:37

Uploader Reputation points : 3810
External: Torrent




Write a Review for the Uploader:   15   Say Thanks with one good review:
Share on Facebook


Details
Name:Break Night 2017 720p BluRay x264 AAC
Description:



General
Format                      : Matroska
Format version              : Version 4 / Version 2
File size                   : 841 MiB
Duration                    : 1 h 37 min
Overall bit rate            : 1 206 kb/s

Video
ID                          : 1
Format                      : AVC
Format/Info                 : Advanced Video Codec
Format profile              : [email protected]
Format settings             : CABAC / 4 Ref Frames
Format settings, CABAC      : Yes
Format settings, ReFrames   : 4 frames
Codec ID                    : V_MPEG4/ISO/AVC
Duration                    : 1 h 37 min
Bit rate                    : 1 100 kb/s
Width                       : 1 280 pixels
Height                      : 544 pixels
Display aspect ratio        : 2.35:1
Frame rate mode             : Constant
Frame rate                  : 23.976 (24000/1001) FPS
Color space                 : YUV
Chroma subsampling          : 4:2:0
Bit depth                   : 8 bits
Scan type                   : Progressive
Bits/(Pixel*Frame)          : 0.066
Stream size                 : 750 MiB (89%)
Writing library             : x264 core 148 r2708 86b7198
Default                     : Yes
Forced                      : No

Audio
ID                          : 2
Format                      : AAC
Format/Info                 : Advanced Audio Codec
Format profile              : LC
Codec ID                    : A_AAC-2
Duration                    : 1 h 37 min
Bit rate                    : 128 kb/s
Channel(s)                  : 2 channels
Channel positions           : Front: L R
Sampling rate               : 44.1 kHz
Frame rate                  : 43.066 FPS (1024 SPF)
Compression mode            : Lossy
Stream size                 : 89.2 MiB (11%)
Language                    : English
Default                     : Yes
Forced                      : No



http://pichub.site/image/ckW5
http://pichub.site/image/cyVh
http://pichub.site/image/ch1r
http://pichub.site/image/cCNj
http://pichub.site/image/ctRk
http://pichub.site/image/czBQ

YouTube Video:
Category:Movies
Language:English  English
Total Size:840.80 MB
Info Hash:520E3F0959FEB955A20125F5E390E691B24DFF08
Added By:MovieFreak Verified UploaderMovie Pirate
Date Added:12-01-2018 10:33:14
Torrent Status:Torrent Verified


Ratings:Not Yet Rated (Log in to rate it)


Tracker:
http://ipv4.tracker.harry.lu/announce

This Torrent also has backup trackers
URLSeedersLeechersCompleted
http://ipv4.tracker.harry.lu/announce364198
http://ipv4.tracker.harry.lu:80/announce364198
http://open.kickasstracker.com/announce40460
https://open.kickasstracker.com:443/announce40460
udp://tracker.coppersurfer.tk:6969/announce303250
udp://tracker.coppersurfer.tk:80/announce303250
udp://tracker.leechers-paradise.org:6969/announce282616
udp://tracker.openbittorrent.com:80/announce000
udp://tracker.zer0day.to:1337/announce292637
http://82.209.230.66/announce000
http://163.172.180.68/announce364198
udp://eddie4.nl:6969/announce292616
udp://explodie.org:6969/announce000
udp://9.rarbg.to:2720/announce292961
udp://tracker.coppersurfer.tk:6969303250


File List: 





Comments
No comments still posted