Login
Username:
Password:
Remember Me:
[Signup]
[Recover Account]
Friends
BTScene
Friendly site

Free Courses Online
Friendly site

Anime RG
Friendly site

KaranPC
Friendly site

P2PDL.com
Friendly site

Free Tutorials & Courses
Friendly site
Torrent Details For "Breaking Bad - Seasons 1-5 - Complete - X264 - Maxillion - [GloTV]"

Breaking Bad - Seasons 1-5 - Complete - X264 - Maxillion - [GloTV]

To download this torrent, you need a BitTorrent client: Vuze or BTGuard
Download this torrent
Download using Magnet Link

Direct Download - no client needed

Download Faster - High Speed Download

Health:
Seeds: 49
Leechers: 30
Completed: 6,323 
Last Checked: 17-01-2016 18:30:36

Uploader Reputation points : 2408
External: Torrent




Write a Review for the Uploader:   50   Say Thanks with one good review:
Share on Facebook


Details
Name:Breaking Bad - Seasons 1-5 - Complete - X264 - Maxillion - [GloTV]
Description:







Creator: Vince Gilligan
Stars: Bryan Cranston, Aaron Paul, Anna Gunn


Storyline:


When chemistry teacher Walter White is diagnosed with Stage III cancer and given only two years to live, he decides he has nothing to lose. He lives with his teenage son, who has cerebral palsy, and his wife, in New Mexico. Determined to ensure that his family will have a secure future, Walt embarks on a career of drugs and crime. He proves to be remarkably proficient in this new world as he begins manufacturing and selling methamphetamine with one of his former students. The series tracks the impacts of a fatal diagnosis on a regular, hard working man, and explores how a fatal diagnosis affects his morality and transforms him into a major player of the drug trade.



Format                                   : MPEG-4
Format profile                           : Base Media
Codec ID                                 : isom
Duration                                 : 58mn 6s
Overall bit rate                         : 371 Kbps
Performer                                : Maxillion
Writing application                      : Lavf56.1.0
Comment                                  : A Maxillion Encode

Video
ID                                       : 1
Format                                   : AVC
Format/Info                              : Advanced Video Codec
Format profile                           : [email protected]
Format settings, CABAC                   : Yes
Format settings, ReFrames                : 4 frames
Codec ID                                 : avc1
Codec ID/Info                            : Advanced Video Coding
Duration                                 : 58mn 6s
Bit rate                                 : 174 Kbps
Width                                    : 700 pixels
Height                                   : 400 pixels
Display aspect ratio                     : 16:9
Original display aspect ratio            : 16:9
Frame rate mode                          : Variable
Frame rate                               : 23.976 fps
Minimum frame rate                       : 23.810 fps
Maximum frame rate                       : 24.390 fps
Color space                              : YUV
Chroma subsampling                       : 4:2:0
Bit depth                                : 8 bits
Scan type                                : Progressive
Bits/(Pixel*Frame)                       : 0.026
Stream size                              : 72.5 MiB (47%)
Writing library                          : x264 core 142 r2431 a5831aa
Encoding settings                        : cabac=1 / ref=1 / deblock=1:0:0 / analyse=0x1:0x111 / me=hex / subme=2 / psy=1 / psy_rd=1.00:0.00 / mixed_ref=0 / me_range=16 / chroma_me=1 / trellis=0 / 8x8dct=0 / cqm=0 / deadzone=21,11 / fast_pskip=1 / chroma_qp_offset=0 / threads=12 / lookahead_threads=3 / sliced_threads=0 / nr=0 / decimate=1 / interlaced=0 / bluray_compat=0 / constrained_intra=0 / bframes=3 / b_pyramid=2 / b_adapt=1 / b_bias=0 / direct=1 / weightb=1 / open_gop=0 / weightp=1 / keyint=240 / keyint_min=24 / scenecut=40 / intra_refresh=0 / rc_lookahead=10 / rc=crf / mbtree=1 / crf=30.0 / qcomp=0.60 / qpmin=0 / qpmax=69 / qpstep=4 / vbv_maxrate=20000 / vbv_bufsize=25000 / crf_max=0.0 / nal_hrd=none / filler=0 / ip_ratio=1.40 / aq=1:1.00
Color primaries                          : BT.709
Transfer characteristics                 : BT.709
Matrix coefficients                      : BT.709

Audio
ID                                       : 2
Format                                   : AC-3
Format/Info                              : Audio Coding 3
Mode extension                           : CM (complete main)
Format settings, Endianness              : Big
Codec ID                                 : ac-3
Duration                                 : 58mn 6s
Bit rate mode                            : Constant
Bit rate                                 : 192 Kbps
Channel(s)                               : 2 channels
Channel positions                        : Front: L R
Sampling rate                            : 32.0 KHz
Bit depth                                : 16 bits
Compression mode                         : Lossy
Stream size                              : 79.8 MiB (52%)
Language                                 : English
YouTube Video:
Category:Packs
Language:English  English
Total Size:6.72 GB
Info Hash:6E6DE529E94393E06577505C7519A2016A517C4D
Added By:Maxillion
Date Added:09-04-2015 09:51:26
Torrent Status:Unverified Torrent


Ratings:Not Yet Rated (Log in to rate it)


Tracker:
udp://tracker.openbittorrent.com:80/announce

This Torrent also has backup trackers
URLSeedersLeechersCompleted
udp://tracker.openbittorrent.com:80/announce000
udp://tracker.publicbt.com:80/announce000
udp://open.demonii.com:1337/announce000
udp://tracker.glotorrents.com:6969/announce000
udp://glotorrents.com:6969/announce000
udp://glotorrents.pw:6969/announce000


File List: 





Comments

[Report] Posted: 09-04-2015 at 17:23:12
Maxillion

avatar

profile message
I made this pack for people who have bandwidth restrictions or live in areas with slower bandwidth. Not HD, TV quality. I compressed it the most I could without ruining video. The audio is excellent.