Download Chhapak (2020) Hindi 720p HDCAM [NO LOGO] x264 AAC Esub Bongrockers torrent - GloDLS
Login
Username:
Password:
Remember Me:
[Signup]
[Recover Account]
Latest Forums Topics
Friends
Angie Torrents
Friendly Site

The Music Torrents Database
Friendly site

Watch Movies and TV Online
Friendly site

Pirateiro
Friendly site

Free Courses Online
Friendly site

ETTV
Friendly site

KaranPC
Friendly site

P2PDL.com
Friendly site

Torrent Details For "Chhapak (2020) Hindi 720p HDCAM [NO LOGO] x264 AAC Esub Bongrockers"

Chhapak (2020) Hindi 720p HDCAM [NO LOGO] x264 AAC Esub Bongrockers

To download this torrent, you need a BitTorrent client: Vuze or BTGuard
Download this torrent
Download using Magnet Link

Health:
Seeds: 5,984
Leechers: 2,683
Completed: 14,327 
Last Checked: 13-01-2020 10:06:20

Uploader Reputation points : 968
External: Torrent






Write a Review for the Uploader:   5   Say Thanks with one good review:
Share on Facebook


Details
Name:Chhapak (2020) Hindi 720p HDCAM [NO LOGO] x264 AAC Esub Bongrockers
Description:


Movie name :

Chhapak (2020) Hindi 720p HDCAM NO [LOGO]  x264 AAC Esub Bongrockers

Quote:

Storyline : The trials and triumphs of Malti, an acid attack survivor. From the investigation of the attack to the court proceedings, the medical treatment to the emotional healing. Chhapaak is the story of the unquashable human spirit

Stars :   Deepika Padukone, Vikrant Massey, Vishal Dahiya

Release date : 10 January 2020 (India)

File size : 800 MB

Encoded by?Bongrockers?


SPECIAL THANKS TO:Team HDWebMovies & Team DRSD & Team SHADOW & Team Jaffa & Silver RG

SPECIAL THANKS TO:Y2K & CLouD9 & Vagabond & RedLady & Maffin & trueHD & starshade

General
Complete name                            :Chhapak (2020) Hindi 720p HDCAM NO [LOGO]  x264 AAC Esub Bongrockers.mp4
Format                                   : MPEG-4
Format profile                           : QuickTime
Codec ID                                 : qt   0000.02 (qt  )
File size                                : 815 MiB
Duration                                 : 1 h 43 min
Overall bit rate                         : 1 103 kb/s
Writing application                      : Lavf55.33.100

Video
ID                                       : 1
Format                                   : AVC
Format/Info                              : Advanced Video Codec
Format profile                           : [email protected]
Format settings                          : CABAC / 4 Ref Frames
Format settings, CABAC                   : Yes
Format settings, Reference frames        : 4 frames
Codec ID                                 : avc1
Codec ID/Info                            : Advanced Video Coding
Duration                                 : 1 h 43 min
Bit rate                                 : 1 000 kb/s
Width                                    : 1 280 pixels
Height                                   : 720 pixels
Display aspect ratio                     : 16:9
Frame rate mode                          : Constant
Frame rate                               : 24.000 FPS
Color space                              : YUV
Chroma subsampling                       : 4:2:0
Bit depth                                : 8 bits
Scan type                                : Progressive
Bits/(Pixel*Frame)                       : 0.045
Stream size                              : 739 MiB (91%)
Writing library                          : x264 core 132
Encoding settings                        : cabac=1 / ref=1 / deblock=1:0:0 / analyse=0x3:0x113 / me=hex / subme=2 / psy=1 / psy_rd=1.00:0.00 / mixed_ref=0 / me_range=16 / chroma_me=1 / trellis=1 / 8x8dct=1 / cqm=0 / deadzone=21,11 / fast_pskip=1 / chroma_qp_offset=0 / threads=2 / lookahead_threads=1 / sliced_threads=0 / nr=0 / decimate=1 / interlaced=0 / bluray_compat=0 / constrained_intra=0 / bframes=2 / b_pyramid=2 / b_adapt=1 / b_bias=0 / direct=1 / weightb=1 / open_gop=0 / weightp=1 / keyint=25 / keyint_min=13 / scenecut=40 / intra_refresh=0 / rc=abr / mbtree=0 / bitrate=1000 / ratetol=0.1 / qcomp=0.60 / qpmin=1 / qpmax=35 / qpstep=2 / ip_ratio=1.40 / pb_ratio=1.30 / aq=1:1.00
Language                                 : English
Codec configuration box                  : avcC

Audio
ID                                       : 2
Format                                   : AAC LC
Format/Info                              : Advanced Audio Codec Low Complexity
Codec ID                                 : mp4a-40-2
Duration                                 : 1 h 43 min
Bit rate mode                            : Constant
Bit rate                                 : 96.0 kb/s
Channel(s)                               : 2 channels
Channel layout                           : L R
Sampling rate                            : 44.1 kHz
Frame rate                               : 43.066 FPS (1024 SPF)
Compression mode                         : Lossy
Stream size                              : 70.9 MiB (9%)
Language                                 : English
Default                                  : Yes
Alternate group                          : 1













YouTube Video:
Category:Movies
Language:Hindi  Hindi
Total Size:814.89 MB
Info Hash:A24CB67F5A3D636A05BB6156C59F8977665E43CF
Added By:trueHD Verified Uploader
Date Added:2020-01-12 01:28:56
Torrent Status:Torrent Verified by Prom3th3uS Super Administrator on 11th January, 2020


Ratings:Not Yet Rated (Log in to rate it)


Tracker:
udp://tracker.coppersurfer.tk:6969/announce

This Torrent also has backup trackers
URLSeedersLeechersCompleted
udp://tracker.coppersurfer.tk:6969/announce4632442,859
udp://tracker.opentrackr.org:1337/announce4222001,828
http://tracker1.itzmx.com:8080/announce3,0201,3191,628
udp://tracker.cyberia.is:6969/announce317137654
udp://tracker.leechers-paradise.org:6969/announce3241391,014
udp://tracker.tiny-vps.com:6969/announce333141793
udp://9.rarbg.com:2710/announce3211291,346
udp://9.rarbg.me:2730/announce3211291,346
udp://tracker.pirateparty.gr:6969/announce4632452,859


File List: 





Comments
No comments still posted