Login
Username:
Password:
Remember Me:
[Signup]
[Recover Account]
Friends
BTScene
Friendly site

Free Courses Online
Friendly site

Anime RG
Friendly site

KaranPC
Friendly site

P2PDL.com
Friendly site

Free Tutorials & Courses
Friendly site
Torrent Details For "Children of the Corn Runaway 2018 720p WEB-DL DD 5 1 x264 ESub"

Children of the Corn Runaway 2018 720p WEB-DL DD 5 1 x264 ESub

To download this torrent, you need a BitTorrent client: Vuze or BTGuard
Download this torrent
Download using Magnet Link

Direct Download - no client needed

Download Faster - High Speed Download

Health:
Seeds: 143
Leechers: 118
Completed: 375 
Last Checked: 14-03-2018 08:25:04

Uploader Reputation points : 3058
External: Torrent




Write a Review for the Uploader:   15   Say Thanks with one good review:
Share on Facebook


Details
Name:Children of the Corn Runaway 2018 720p WEB-DL DD 5 1 x264 ESub
Description:




General
Format                                   : Matroska
Format version                           : Version 4 / Version 2
File size                                : 940 MiB
Duration                                 : 1 h 22 min
Overall bit rate                         : 1 598 kb/s

Video
ID                                       : 1
Format                                   : AVC
Format/Info                              : Advanced Video Codec
Format profile                           : [email protected]
Format settings                          : CABAC / 4 Ref Frames
Format settings, CABAC                   : Yes
Format settings, RefFrames               : 4 frames
Codec ID                                 : V_MPEG4/ISO/AVC
Duration                                 : 1 h 22 min
Bit rate                                 : 1 200 kb/s
Width                                    : 1 280 pixels
Height                                   : 540 pixels
Display aspect ratio                     : 2.40:1
Frame rate mode                          : Constant
Frame rate                               : 23.976 (24000/1001) FPS
Color space                              : YUV
Chroma subsampling                       : 4:2:0
Bit depth                                : 8 bits
Scan type                                : Progressive
Bits/(Pixel*Frame)                       : 0.072
Stream size                              : 713 MiB (76%)
Writing library                          : x264 core 148 r2708 86b7198
Default                                  : Yes
Forced                                   : No

Audio
ID                                       : 2
Format                                   : AC-3
Format/Info                              : Audio Coding 3
Codec ID                                 : A_AC3
Duration                                 : 1 h 22 min
Bit rate mode                            : Constant
Bit rate                                 : 384 kb/s
Channel(s)                               : 6 channels
Channel positions                        : Front: L C R, Side: L R, LFE
Sampling rate                            : 48.0 kHz
Frame rate                               : 31.250 FPS (1536 SPF)
Bit depth                                : 16 bits
Compression mode                         : Lossy
Stream size                              : 226 MiB (24%)
Language                                 : English
Service kind                             : Complete Main
Default                                  : Yes
Forced                                   : No

Text
ID                                       : 3
Format                                   : UTF-8
Codec ID                                 : S_TEXT/UTF8
Codec ID/Info                            : UTF-8 Plain Text
Duration                                 : 1 h 21 min
Bit rate                                 : 39 b/s
Count of elements                        : 883
Stream size                              : 23.7 KiB (0%)
Language                                 : English
Default                                  : No
Forced                                   : No

Menu
00:00:00.000                             : en:1
00:11:57.000                             : en:2
00:25:54.000                             : en:3
00:33:45.000                             : en:4
00:46:17.000                             : en:5
00:59:11.000                             : en:6
01:08:29.000                             : en:7
01:19:26.000                             : en:8








YouTube Video:
Category:Movies
Language:English  English
Total Size:939.97 MB
Info Hash:8B4E16F0919C7BDC7DC577851A8275241B41E437
Added By:MovieFreak Verified UploaderMovie Pirate
Date Added:13-03-2018 23:36:43
Torrent Status:Torrent Verified


Ratings:Not Yet Rated (Log in to rate it)


Tracker:
udp://tracker.pirateparty.gr:6969/announce

This Torrent also has backup trackers
URLSeedersLeechersCompleted
udp://tracker.pirateparty.gr:6969/announce151630
udp://tracker.opentrackr.org:1337/announce151228
http://tracker.opentrackr.org/announce000
udp://tracker.vanitycore.co:6969/announce12726
udp://public.popcorn-tracker.org:6969/announce131129
udp://9.rarbg.to:2710/announce000
udp://9.rarbg.me:2710/announce11863
udp://9.rarbg.com:2770/announce11863
udp://inferno.demonoid.pw:3391/announce12821
udp://tracker.internetwarriors.net:1337/announce131225
udp://ipv4.tracker.harry.lu:80/announce360
udp://p4p.arenabg.ch:1337/announce000
http://tracker.vanitycore.co:6969/announce12726
http://public.popcorn-tracker.org:6969/announce131129
udp://tracker.zer0day.to:1337/announce131235


File List: 





Comments
No comments still posted