Login
Username:
Password:
Remember Me:
[Signup]
[Recover Account]
Friends
BTScene
Friendly site

Ale Torrenty Team
Friendly site

Anime RG
Friendly site

KaranPC
Friendly site

P2PDL.com
Friendly site

Free Tutorials & Courses
Friendly site
Torrent Details For "Coin.Heist.2017.1080p.WEBRip.x264.AAC-eSc[PRiME]"

Coin.Heist.2017.1080p.WEBRip.x264.AAC-eSc[PRiME]

To download this torrent, you need a BitTorrent client: Vuze or BTGuard
Download this torrent
Download using Magnet Link

Direct Download - no client needed

Download Faster - High Speed Download

Health:
Seeds: 13
Leechers: 0
Completed:
Last Checked: 08-01-2017 06:00:17

Uploader Reputation points : 109538
External: Torrent




Write a Review for the Uploader:   55   Say Thanks with one good review:
Share on Facebook


Details
Name:Coin.Heist.2017.1080p.WEBRip.x264.AAC-eSc[PRiME]
Description:

Coin.Heist.2017.1080p.WEBRip.x264.AAC-eSc[PRiME]

ImDb: http://www.imdb.com/title/tt5740806



Complete name                            : Coin.Heist.2017.1080p.WEBRip.x264.AAC-eSc[PRiME].mp4
Format                                   : MPEG-4
Format profile                           : Base Media / Version 2
Codec ID                                 : mp42 (isom/iso2/avc1/mp41)
File size                                : 1.58 GiB
Duration                                 : 1 h 36 min
Overall bit rate mode                    : Variable
Overall bit rate                         : 2 335 kb/s
Encoded date                             : UTC 2017-01-08 01:01:06
Tagged date                              : UTC 2017-01-08 01:01:06
Writing application                      : HandBrake 0.10.5 2016021100

Video
ID                                       : 1
Format                                   : AVC
Format/Info                              : Advanced Video Codec
Format profile                           : [email protected]
Format settings, CABAC                   : Yes
Format settings, ReFrames                : 4 frames
Codec ID                                 : avc1
Codec ID/Info                            : Advanced Video Coding
Duration                                 : 1 h 36 min
Bit rate                                 : 2 200 kb/s
Width                                    : 1 920 pixels
Height                                   : 1 036 pixels
Display aspect ratio                     : 1.85:1
Frame rate mode                          : Constant
Frame rate                               : 29.970 (30000/1001) FPS
Color space                              : YUV
Chroma subsampling                       : 4:2:0
Bit depth                                : 8 bits
Scan type                                : Progressive
Bits/(Pixel*Frame)                       : 0.037
Stream size                              : 1.49 GiB (94%)
Writing library                          : x264 core 142 r2479 dd79a61
Encoding settings                        : cabac=1 / ref=4 / deblock=1:-1:-1 / analyse=0x3:0x133 / me=umh / subme=9 / psy=1 / psy_rd=1.00:0.15 / mixed_ref=1 / me_range=16 / chroma_me=1 / trellis=2 / 8x8dct=1 / cqm=0 / deadzone=21,11 / fast_pskip=1 / chroma_qp_offset=-3 / threads=12 / lookahead_threads=1 / sliced_threads=0 / nr=0 / decimate=1 / interlaced=0 / bluray_compat=0 / constrained_intra=0 / bframes=3 / b_pyramid=2 / b_adapt=2 / b_bias=0 / direct=3 / weightb=1 / open_gop=0 / weightp=2 / keyint=300 / keyint_min=30 / scenecut=40 / intra_refresh=0 / rc_lookahead=60 / rc=2pass / mbtree=1 / bitrate=2200 / ratetol=1.0 / qcomp=0.60 / qpmin=0 / qpmax=69 / qpstep=4 / cplxblur=20.0 / qblur=0.5 / vbv_maxrate=62500 / vbv_bufsize=78125 / nal_hrd=none / filler=0 / ip_ratio=1.40 / aq=1:1.00
Encoded date                             : UTC 2017-01-08 01:01:06
Tagged date                              : UTC 2017-01-08 01:01:06
Color range                              : Limited
Color primaries                          : BT.709
Transfer characteristics                 : BT.709
Matrix coefficients                      : BT.709

Audio
ID                                       : 2
Format                                   : AAC
Format/Info                              : Advanced Audio Codec
Format profile                           : LC
Codec ID                                 : 40
Duration                                 : 1 h 36 min
Bit rate mode                            : Variable
Bit rate                                 : 128 kb/s
Channel(s)                               : 2 channels
Channel positions                        : Front: L R
Sampling rate                            : 44.1 kHz
Frame rate                               : 43.066 FPS (1024 spf)
Compression mode                         : Lossy
Stream size                              : 88.8 MiB (5%)
Title                                    : Stereo / Stereo
Language                                 : English
Default                                  : Yes
Alternate group                          : 1
Encoded date                             : UTC 2017-01-08 01:01:06
Tagged date                              : UTC 2017-01-08 01:01:06




Click Image To View Full Size


Click To View Screenshot
Click To View Screenshot
Click To View Screenshot

YouTube Video:
Category:Movies
Language:English  English
Total Size:1.58 GB
Info Hash:D84ABFF540A6BE2572A5775BCB1DF7F67C7B8A14
Added By:Simmoncelli VIPMovie Pirate
Date Added:08-01-2017 05:59:45
Torrent Status:Torrent Verified


Ratings:Not Yet Rated (Log in to rate it)


Tracker:
udp://tracker.ilibr.org:6969/announce

This Torrent also has backup trackers
URLSeedersLeechersCompleted
udp://tracker.ilibr.org:6969/announce000
udp://tracker.coppersurfer.tk:6969100
udp://tracker.ilibr.org:80/announce100
udp://tracker.coppersurfer.tk:6969/announce100
udp://tracker.leechers-paradise.org:6969/announce100
udp://tracker.opentrackr.org:1337/announce100
udp://tracker.zer0day.to:1337/announce100
udp://ipv4.tracker.harry.lu:80/announce100
udp://p4p.arenabg.ch:1337/announce100
udp://p4p.arenabg.com:1337/announce100
udp://9.rarbg.com:2710/announce100
udp://9.rarbg.to:2710/announce100
udp://9.rarbg.me:2710/announce100
udp://explodie.org:6969/announce100
udp://eddie4.nl:6969/announce000


File List: 





Comments
No comments still posted