Login
Username:
Password:
Remember Me:
[Signup]
[Recover Account]
Friends
BTScene
Friendly site

Ale Torrenty Team
Friendly site

Anime RG
Friendly site

KaranPC
Friendly site

P2PDL.com
Friendly site
Torrent Details For "Coin.Heist.2017.HDRip.XviD.AC3-EVO[PRiME]"

Coin.Heist.2017.HDRip.XviD.AC3-EVO[PRiME]

To download this torrent, you need a BitTorrent client: Vuze or BTGuard
Download this torrent
Download using Magnet Link

Direct Download - no client needed

Download Faster - High Speed Download

Health:
Seeds: 24
Leechers: 396
Completed:
Last Checked: 07-01-2017 02:00:18

Uploader Reputation points : 89446
External: Torrent




Write a Review for the Uploader:   40   Say Thanks with one good review:
Share on Facebook


Details
Name:Coin.Heist.2017.HDRip.XviD.AC3-EVO[PRiME]
Description:

Coin.Heist.2017.HDRip.XviD.AC3-EVO[PRiME]

ImDb: http://www.imdb.com/title/tt5740806



Complete name                            : Coin.Heist.2017.HDRip.XviD.AC3-EVO[PRiME].avi
Format                                   : AVI
Format/Info                              : Audio Video Interleave
File size                                : 1.35 GiB
Duration                                 : 1 h 36 min
Overall bit rate                         : 2 002 kb/s
Writing library                          : VirtualDub build 32593/release

Video
ID                                       : 0
Format                                   : MPEG-4 Visual
Format profile                           : Advanced [email protected]
Format settings, BVOP                    : 2
Format settings, QPel                    : No
Format settings, GMC                     : No warppoints
Format settings, Matrix                  : Default (H.263)
Muxing mode                              : Packed bitstream
Codec ID                                 : XVID
Codec ID/Hint                            : XviD
Duration                                 : 1 h 36 min
Bit rate                                 : 1 544 kb/s
Width                                    : 720 pixels
Height                                   : 384 pixels
Display aspect ratio                     : 1.85:1
Frame rate                               : 23.976 (23976/1000) FPS
Color space                              : YUV
Chroma subsampling                       : 4:2:0
Bit depth                                : 8 bits
Scan type                                : Progressive
Compression mode                         : Lossy
Bits/(Pixel*Frame)                       : 0.233
Stream size                              : 1.04 GiB (77%)
Writing library                          : XviD 66

Audio
ID                                       : 1
Format                                   : AC-3
Format/Info                              : Audio Coding 3
Mode extension                           : CM (complete main)
Format settings, Endianness              : Big
Codec ID                                 : 2000
Duration                                 : 1 h 36 min
Bit rate mode                            : Constant
Bit rate                                 : 448 kb/s
Channel(s)                               : 6 channels
Channel positions                        : Front: L C R, Side: L R, LFE
Sampling rate                            : 48.0 kHz
Frame rate                               : 31.250 FPS (1536 spf)
Compression mode                         : Lossy
Stream size                              : 310 MiB (22%)
Alignment                                : Aligned on interleaves
Interleave, duration                     : 42  ms (1.00 video frame)
Interleave, preload duration             : 512  ms




Click Image To View Full Size


Click To View Screenshot
Click To View Screenshot
Click To View Screenshot

YouTube Video:
Category:Movies
Language:English  English
Total Size:1.36 GB
Info Hash:1F6BD87430F3031EF6914DBA37CA73419AD89A7C
Added By:Simmoncelli VIPMovie Pirate
Date Added:07-01-2017 01:45:11
Torrent Status:Torrent Verified


Ratings:Not Yet Rated (Log in to rate it)


Tracker:
udp://tracker.ilibr.org:6969/announce

This Torrent also has backup trackers
URLSeedersLeechersCompleted
udp://tracker.ilibr.org:6969/announce000
udp://tracker.coppersurfer.tk:69692350
udp://tracker.ilibr.org:80/announce2350
udp://tracker.coppersurfer.tk:6969/announce2350
udp://tracker.leechers-paradise.org:6969/announce2300
udp://tracker.opentrackr.org:1337/announce2330
udp://tracker.zer0day.to:1337/announce1330
udp://ipv4.tracker.harry.lu:80/announce1290
udp://p4p.arenabg.ch:1337/announce2290
udp://p4p.arenabg.com:1337/announce2290
udp://9.rarbg.com:2710/announce2290
udp://9.rarbg.to:2710/announce2290
udp://9.rarbg.me:2710/announce2290
udp://explodie.org:6969/announce2210
udp://eddie4.nl:6969/announce000


File List: 





Comments
No comments still posted