Login
Username:
Password:
Remember Me:
[Signup]
[Recover Account]
Friends
BTScene
Friendly site

Ale Torrenty Team
Friendly site

Anime RG
Friendly site

KaranPC
Friendly site

P2PDL.com
Friendly site
Torrent Details For "Counter.Clockwise.2016.720p.BluRay.x264-SADPANDA[PRiME]"

Counter.Clockwise.2016.720p.BluRay.x264-SADPANDA[PRiME]

To download this torrent, you need a BitTorrent client: Vuze or BTGuard
Download this torrent
Download using Magnet Link

Direct Download - no client needed

Download Faster - High Speed Download

Health:
Seeds: 7
Leechers: 26
Completed:
Last Checked: 17-02-2017 16:15:19

Uploader Reputation points : 92890
External: Torrent




Write a Review for the Uploader:   45   Say Thanks with one good review:
Share on Facebook


Details
Name:Counter.Clockwise.2016.720p.BluRay.x264-SADPANDA[PRiME]
Description:

Counter.Clockwise.2016.720p.BluRay.x264-SADPANDA[PRiME]

ImDb: http://www.imdb.com/title/tt3836530



Complete name                            : Counter.Clockwise.2016.720p.BluRay.x264-SADPANDA[PRiME].mkv
Format                                   : Matroska
Format version                           : Version 4 / Version 2
File size                                : 3.27 GiB
Duration                                 : 1 h 31 min
Overall bit rate                         : 5 089 kb/s
Encoded date                             : UTC 2017-02-17 14:55:19
Writing application                      : mkvmerge v9.8.0 ('Kuglblids') 64bit
Writing library                          : libebml v1.3.4 + libmatroska v1.4.5

Video
ID                                       : 1
Format                                   : AVC
Format/Info                              : Advanced Video Codec
Format profile                           : [email protected]
Format settings, CABAC                   : Yes
Format settings, ReFrames                : 5 frames
Codec ID                                 : V_MPEG4/ISO/AVC
Duration                                 : 1 h 31 min
Bit rate                                 : 4 639 kb/s
Width                                    : 1 280 pixels
Height                                   : 544 pixels
Display aspect ratio                     : 2.35:1
Frame rate mode                          : Constant
Frame rate                               : 23.976 (24000/1001) FPS
Color space                              : YUV
Chroma subsampling                       : 4:2:0
Bit depth                                : 8 bits
Scan type                                : Progressive
Bits/(Pixel*Frame)                       : 0.278
Stream size                              : 2.98 GiB (91%)
Writing library                          : x264 core 148 r2744 b97ae06
Encoding settings                        : cabac=1 / ref=5 / deblock=1:-3:-3 / analyse=0x3:0x113 / me=umh / subme=8 / psy=1 / psy_rd=1.00:0.25 / mixed_ref=1 / me_range=24 / chroma_me=1 / trellis=1 / 8x8dct=1 / cqm=0 / deadzone=21,11 / fast_pskip=1 / chroma_qp_offset=-4 / threads=17 / lookahead_threads=2 / sliced_threads=0 / nr=0 / decimate=1 / interlaced=0 / bluray_compat=0 / constrained_intra=0 / bframes=3 / b_pyramid=2 / b_adapt=1 / b_bias=0 / direct=3 / weightb=1 / open_gop=0 / weightp=2 / keyint=240 / keyint_min=24 / scenecut=40 / intra_refresh=0 / rc_lookahead=50 / rc=2pass / mbtree=1 / bitrate=4639 / ratetol=1.0 / qcomp=0.60 / qpmin=0 / qpmax=69 / qpstep=4 / cplxblur=20.0 / qblur=0.5 / ip_ratio=1.40 / aq=1:0.75
Default                                  : Yes
Forced                                   : No

Audio
ID                                       : 2
Format                                   : AC-3
Format/Info                              : Audio Coding 3
Mode extension                           : CM (complete main)
Format settings, Endianness              : Big
Codec ID                                 : A_AC3
Duration                                 : 1 h 31 min
Bit rate mode                            : Constant
Bit rate                                 : 448 kb/s
Channel(s)                               : 6 channels
Channel positions                        : Front: L C R, Side: L R, LFE
Sampling rate                            : 48.0 kHz
Frame rate                               : 31.250 FPS (1536 spf)
Compression mode                         : Lossy
Stream size                              : 295 MiB (9%)
Language                                 : English
Default                                  : Yes
Forced                                   : No

Menu
00:00:00.000                             : en:00:00:00.000
00:07:15.143                             : en:00:07:15.143
00:15:45.820                             : en:00:15:45.820
00:22:09.328                             : en:00:22:09.328
00:30:45.927                             : en:00:30:45.927
00:38:02.197                             : en:00:38:02.197
00:44:38.426                             : en:00:44:38.426
00:52:08.667                             : en:00:52:08.667
01:01:00.490                             : en:01:01:00.490
01:08:30.523                             : en:01:08:30.523
01:16:12.610                             : en:01:16:12.610
01:23:25.876                             : en:01:23:25.876
01:31:57.929                             : en:01:31:57.929




Click Image To View Full Size


Click To View Screenshot
Click To View Screenshot
Click To View Screenshot

YouTube Video:
Category:Movies
Language:English  English
Total Size:3.31 GB
Info Hash:D16736B2C4C1157D06A1BEE379064E640AC97BD0
Added By:Simmoncelli VIPMovie Pirate
Date Added:17-02-2017 16:05:55
Torrent Status:Torrent Verified


Ratings:Not Yet Rated (Log in to rate it)


Tracker:
udp://tracker.ilibr.org:6969/announce

This Torrent also has backup trackers
URLSeedersLeechersCompleted
udp://tracker.ilibr.org:6969/announce120
udp://tracker.coppersurfer.tk:6969120
udp://tracker.ilibr.org:80/announce120
udp://tracker.coppersurfer.tk:6969/announce120
udp://tracker.leechers-paradise.org:6969/announce000
udp://tracker.opentrackr.org:1337/announce020
udp://tracker.zer0day.to:1337/announce020
udp://ipv4.tracker.harry.lu:80/announce020
udp://p4p.arenabg.ch:1337/announce020
udp://p4p.arenabg.com:1337/announce020
udp://9.rarbg.com:2710/announce120
udp://9.rarbg.to:2710/announce120
udp://9.rarbg.me:2710/announce120
udp://explodie.org:6969/announce020
udp://eddie4.nl:6969/announce000


File List: 





Comments
No comments still posted