Login
Username:
Password:
Remember Me:
[Signup]
[Recover Account]
Friends
BTScene
Friendly site

Free Courses Online
Friendly site

Anime RG
Friendly site

KaranPC
Friendly site

P2PDL.com
Friendly site

Free Tutorials & Courses
Friendly site
Torrent Details For "Daas Dev (2018) Hindi HDTVRip x264 AAC by Full4movies"

Daas Dev (2018) Hindi HDTVRip x264 AAC by Full4movies

To download this torrent, you need a BitTorrent client: Vuze or BTGuard
Download this torrent
Download using Magnet Link

Direct Download - no client needed

Download Faster - High Speed Download

Health:
Seeds: 204
Leechers: 171
Completed: 313 
Last Checked: 12-07-2018 17:00:17

Uploader Reputation points : 1436
External: Torrent




Write a Review for the Uploader:   0   Say Thanks with one good review:
Share on Facebook


Details
Name:Daas Dev (2018) Hindi HDTVRip x264 AAC by Full4movies
Description:


General
Complete name                  : Daas Dev (2018) Hindi HDTVRip x264 AAC by Full4movies.mkv
Format                         : Matroska
Format version                 : Version 4 / Version 2
File size                      : 702 MiB
Duration                       : 2 h 11 min
Overall bit rate               : 745 kb/s
Movie name                     : www.Full4movies.co
Encoded date                   : UTC 2018-07-11 10:14:57
Writing application            : mkvmerge v8.1.0 ('Psychedelic Postcard') 32bit
Writing library                : libebml v1.3.1 + libmatroska v1.4.2

Video
ID                             : 1
Format                         : AVC
Format/Info                    : Advanced Video Codec
Format profile                 : [email protected]
Format settings, CABAC         : Yes
Format settings, RefFrames     : 4 frames
Codec ID                       : V_MPEG4/ISO/AVC
Duration                       : 2 h 11 min
Bit rate                       : 674 kb/s
Width                          : 720 pixels
Height                         : 304 pixels
Display aspect ratio           : 2.35:1
Frame rate mode                : Variable
Frame rate                     : 29.970 FPS
Color space                    : YUV
Chroma subsampling             : 4:2:0
Bit depth                      : 8 bits
Scan type                      : Progressive
Bits/(Pixel*Frame)             : 0.103
Stream size                    : 638 MiB (91%)
Writing library                : x264 core 112
Language                       : English
Default                        : Yes
Forced                         : No
Color range                    : Limited
Color primaries                : BT.709
Transfer characteristics       : BT.709
Matrix coefficients            : BT.709

Audio
ID                             : 2
Format                         : AAC
Format/Info                    : Advanced Audio Codec
Format profile                 : LC
Codec ID                       : A_AAC
Duration                       : 2 h 11 min
Bit rate                       : 64.2 kb/s
Channel(s)                     : 2 channels
Channel positions              : Front: L R
Sampling rate                  : 48.0 kHz
Frame rate                     : 46.875 FPS (1024 SPF)
Compression mode               : Lossy
Stream size                    : 60.5 MiB (9%)
Language                       : Hindi
Default                        : Yes
Forced                         : No

Screen Shoots
YouTube Video:   
Category:Movies
Language:Hindi  Hindi
Total Size:701.91 MB
Info Hash:B0229341B373A1D9FFBF7BFF1239952AFC65A94C
Added By:india4movie Verified Uploader
Date Added:12-07-2018 08:06:29
Torrent Status:Torrent Verified


Ratings:Not Yet Rated (Log in to rate it)


Tracker:
udp://tracker.coppersurfer.tk:6969/announce

This Torrent also has backup trackers
URLSeedersLeechersCompleted
udp://tracker.coppersurfer.tk:6969/announce162145
udp://tracker.opentrackr.org:1337/announce171625
udp://9.rarbg.me:2710/announce000
udp://tracker.torrent.eu.org:451/announce16915
udp://open.stealth.si:80/announce12111
udp://public.popcorn-tracker.org:6969/announce141211
udp://p4p.arenabg.ch:1337/announce000
udp://tracker.zer0day.to:1337/announce000
udp://tracker.pirateparty.gr:6969/announce162145
udp://tracker.leechers-paradise.org:6969/announce181531
udp://tracker.tiny-vps.com:6969/announce191423
udp://bt.firebit.co.uk:6969/announce181531
udp://inferno.demonoid.pw:3397/announce181122
udp://shadowshq.yi.org:6969/announce181531
udp://9.rarbg.to:2780/announce221133


File List: 





Comments
No comments still posted