Login
Username:
Password:
Remember Me:
[Signup]
[Recover Account]
Friends
BTScene
Friendly site

Free Courses Online
Friendly site

Anime RG
Friendly site

KaranPC
Friendly site

P2PDL.com
Friendly site

Free Tutorials & Courses
Friendly site
Torrent Details For "Damian Fucks Abe"

Damian Fucks Abe

To download this torrent, you need a BitTorrent client: Vuze or BTGuard
Download this torrent
Download using Magnet Link

Direct Download - no client needed

Download Faster - High Speed Download

Health:
Seeds: 15
Leechers: 1
Completed:
Last Checked: 12-07-2018 14:00:46

Uploader Reputation points : 9428
External: Torrent



BTGuard - BitTorrent Anonymously


Write a Review for the Uploader:   15   Say Thanks with one good review:
Share on Facebook


Details
Name:Damian Fucks Abe
Description:
Starring: Damian (Cruz) Fox ,  Abe Andrews

[HD] Abe and Damian are lounging in their beds, talking, when the subject comes up about uncut Censored. Never having seen one, let alone sucked one, Abe excitedly asks to see Damian’s uncut meat, and greedily begins sucking it. Soon Damian is returning the favor, slurping like crazy on Abe’s hard cock. But Damian wants more… so he pushes Abe’s legs up and begins tongue washing his buddy’s hot hole before Censoreding it hard… first on his back and them doggie-style. Then Damian shoots his juicy latino load into Abe’s mouth, followed by Damian getting a face full of his friend’s white-hot cum.





http://damimage.com/img-5b4745832e8e1.html


Format                                   : MPEG-4
Format profile                           : Base Media / Version 2
Codec ID                                 : mp42 (mp42)
File size                                : 1.42 GiB
Duration                                 : 19 min 29 s
Overall bit rate                         : 10.5 Mb/s
Codirector                               : codirector
Production studio                        : studio
ContentType                              : Unknown Type
Encoded date                             : UTC 2018-04-15 03:29:33
Tagged date                              : UTC 2018-04-15 03:29:33

Video
ID                                       : 1
Format                                   : AVC
Format/Info                              : Advanced Video Codec
Format profile                           : [email protected]
Format settings                          : 1 Ref Frames
Format settings, CABAC                   : No
Format settings, ReFrames                : 1 frame
Format settings, GOP                     : M=1, N=25
Muxing mode                              : Container [email protected]
Codec ID                                 : avc1
Codec ID/Info                            : Advanced Video Coding
Duration                                 : 19 min 28 s
Bit rate                                 : 10.3 Mb/s
Width                                    : 1 920 pixels
Height                                   : 1 080 pixels
Display aspect ratio                     : 16:9
Frame rate mode                          : Constant
Frame rate                               : 29.970 (30000/1001) FPS
Original frame rate                      : 29.000 FPS
Color space                              : YUV
Chroma subsampling                       : 4:2:0
Bit depth                                : 8 bits
Scan type                                : Progressive
Bits/(Pixel*Frame)                       : 0.166
Stream size                              : 1.40 GiB (98%)
Language                                 : English
Encoded date                             : UTC 1952-04-14 03:29:33
Tagged date                              : UTC 1952-04-14 03:29:33

Audio
ID                                       : 2
Format                                   : AAC
Format/Info                              : Advanced Audio Codec
Format profile                           : LC
Codec ID                                 : mp4a-40-2
Duration                                 : 19 min 29 s
Bit rate mode                            : Constant
Bit rate                                 : 160 kb/s
Channel(s)                               : 2 channels
Channel positions                        : Front: L R
Sampling rate                            : 44.1 kHz
Frame rate                               : 43.066 FPS (1024 SPF)
Compression mode                         : Lossy
Stream size                              : 22.3 MiB (2%)
Title                                    : Stereo
Language                                 : English
Default                                  : Yes
Alternate group                          : 1
Encoded date                             : UTC 1952-04-14 03:29:33
Tagged date                              : UTC 1952-04-14 03:29:33
YouTube Video:
Category:Adult XXX
Language:Aucune/N/D
Total Size:1.42 GB
Info Hash:BA3C67DC1652ED36B75EA59707B57CBA22368C4A
Added By:nata24 Verified UploaderPorn Guy
Date Added:12-07-2018 13:33:21
Torrent Status:Torrent Verified


Ratings:Not Yet Rated (Log in to rate it)


Tracker:
udp://open.stealth.si:80/announce

This Torrent also has backup trackers
URLSeedersLeechersCompleted
udp://open.stealth.si:80/announce110
udp://tracker.internetwarriors.net:1337/announce100
udp://tracker.coppersurfer.tk:6969/announce100
udp://tracker.coppersurfer.tk:6969100
udp://tracker.pirateparty.gr:6969/announce100
udp://tracker.qt.is:6969/announce100
udp://eddie4.nl:6969/announce100
udp://shadowshq.yi.org:6969/announce100
udp://tracker.leechers-paradise.org:6969/announce100
udp://tracker.vanitycore.co:6969/announce100
udp://torr.ws:2710/announce100
udp://seedbay.net:2710/announce100
udp://tracker.ds.is:6969/announce100
udp://tracker.0o.is:6969/announce100
udp://tracker.open-internet.nl:6969/announce100


File List: 





Comments
No comments still posted