Login
Username:
Password:
Remember Me:
[Signup]
[Recover Account]
Friends
BTScene
Friendly site

Ale Torrenty Team
Friendly site

Anime RG
Friendly site

KaranPC
Friendly site

P2PDL.com
Friendly site

Free Tutorials & Courses
Friendly site
Torrent Details For "Dance Moms S07E21 Ashlee's Big Decision Part 1 1080p WEB-DL AAC2.0 H.264-LAZY"

Dance Moms S07E21 Ashlee's Big Decision Part 1 1080p WEB-DL AAC2.0 H.264-LAZY

To download this torrent, you need a BitTorrent client: Vuze or BTGuard
Download this torrent
Download using Magnet Link

Direct Download - no client needed

Download Faster - High Speed Download

Health:
Seeds: 11
Leechers: 5
Completed:
Last Checked: 13-09-2017 22:09:21

Uploader Reputation points : 127
External: Torrent




Write a Review for the Uploader:   5   Say Thanks with one good review:
Share on Facebook
TV Info

Dance Moms

Set in Pittsburgh, Dance Moms follows the Abby Lee Dance Company's Junior Elite Competition Team of young girls aged 11–14 years old as they travel week-to-week to various dance competitions, winning awards and hoping for an invitation to one of the National Competitions. Much of the program depicts the doting mothers as rivals not only of each other but as a group to protect the reputation of the team. All performances are choreographed by Miller and her staff, with the exception of a few guest choreographers. Later in the program, rival dance teams are introduced that spur the team's competitiveness. In season 5, Miller brings the team to Los Angeles to help build her repertoire. Every week on the show, Miller uses a pyramid to present who she feels performed the best in her eyes based on behavior, previous performance and who needs to improve.



Details
Name:Dance Moms S07E21 Ashlee's Big Decision Part 1 1080p WEB-DL AAC2.0 H.264-LAZY
Description:
Dance Moms:

Video
ID                                       : 2
Format                                   : AVC
Format/Info                              : Advanced Video Codec
Format profile                           : [email protected]
Format settings, CABAC                   : Yes
Format settings, RefFrames               : 5 frames
Codec ID                                 : V_MPEG4/ISO/AVC
Duration                                 : 41 min 56 s
Bit rate                                 : 5 165 kb/s
Width                                    : 1 432 pixels
Height                                   : 1 070 pixels
Display aspect ratio                     : 16:9
Frame rate mode                          : Constant
Frame rate                               : 29.970 (29970/1000) FPS
Color space                              : YUV
Chroma subsampling                       : 4:2:0
Bit depth                                : 8 bits
Scan type                                : Progressive
Bits/(Pixel*Frame)                       : 0.112
Stream size                              : 1.51 GiB (98%)
Language                                 : English
Default                                  : Yes
Forced                                   : No
Color range                              : Limited
Color primaries                          : BT.709
Transfer characteristics                 : BT.709
Matrix coefficients                      : BT.709

Audio
ID                                       : 1
Format                                   : AAC
Format/Info                              : Advanced Audio Codec
Format profile                           : LC
Codec ID                                 : A_AAC
Duration                                 : 41 min 56 s
Bit rate                                 : 125 kb/s
Channel(s)                               : 2 channels
Channel positions                        : Front: L R
Sampling rate                            : 48.0 kHz
Frame rate                               : 46.875 FPS (1024 SPF)
Compression mode                         : Lossy
Delay relative to video                  : -33 ms
Stream size                              : 37.4 MiB (2%)
Language                                 : English
Default                                  : Yes
Forced                                   : No

Text
ID                                       : 3
Format                                   : UTF-8
Codec ID                                 : S_TEXT/UTF8
Codec ID/Info                            : UTF-8 Plain Text
Duration                                 : 41 min 53 s
Bit rate                                 : 163 b/s
Count of elements                        : 1100
Stream size                              : 50.1 KiB (0%)
Language                                 : English
Default                                  : Yes
Forced                                   : No

Screenshots:
YouTube Video:   
Category:TV
Language:English  English
Total Size:1.55 GB
Info Hash:0D6A7AB997C4245B27FE9CDB4A4FEB444C2C8436
Added By:LazyRips Verified Uploader
Date Added:13-09-2017 16:50:59
Torrent Status:Torrent Verified


Ratings:Not Yet Rated (Log in to rate it)


Tracker:
udp://tracker.opentrackr.org:1337/announce

This Torrent also has backup trackers
URLSeedersLeechersCompleted
udp://tracker.opentrackr.org:1337/announce000
udp://tracker.coppersurfer.tk:6969/announce535
udp://9.rarbg.me:2780/announce624
udp://glotorrents.pw:6969/announce000
udp://tracker.istole.it:80/announce000
udp://tracker4.piratux.com:6969/announce000
udp://tracker.publicbt.com:80/announce000
udp://coppersurfer.tk:6969/announce000
udp://open.demonii.com:1337/announce000
udp://tracker.openbittorrent.com:80/announce000


File List: 





Comments
No comments still posted