Login
Username:
Password:
Remember Me:
[Signup]
[Recover Account]
Friends
BTScene
Friendly site

Ale Torrenty Team
Friendly site

Anime RG
Friendly site

KaranPC
Friendly site

P2PDL.com
Friendly site

Free Tutorials & Courses
Friendly site
Torrent Details For "Deepwater Horizon 2016 HDCAM 800MB Makintos13 "

Deepwater Horizon 2016 HDCAM 800MB Makintos13

To download this torrent, you need a BitTorrent client: Vuze or BTGuard
Download this torrent
Download using Magnet Link

Direct Download - no client needed

Download Faster - High Speed Download

Health:
Seeds: 1,503
Leechers: 287
Completed: 56,971 
Last Checked: 13-11-2016 12:25:05

Uploader Reputation points : 1713
External: Torrent




Write a Review for the Uploader:   40   Say Thanks with one good review:
Share on Facebook


Details
Name:Deepwater Horizon 2016 HDCAM 800MB Makintos13
Description:
Deepwater.Horizon.2016.HDCAM.800MB.Makintos13




Format                      : Matroska
Format version              : Version 4 / Version 2
File size                   : 820 MiB
Duration                    : 1 h 36 min
Overall bit rate            : 1 184 kb/s


Video
ID                          : 1
Format                      : AVC
Format/Info                 : Advanced Video Codec
Format profile              : [email protected]
Format settings, CABAC      : Yes
Format settings, ReFrames   : 4 frames
Codec ID                    : V_MPEG4/ISO/AVC
Duration                    : 1 h 36 min
Bit rate                    : 1 117 kb/s
Width                       : 640 pixels
Height                      : 272 pixels
Display aspect ratio        : 2.35:1
Frame rate mode             : Constant
Frame rate                  : 29.970 (30000/1001) FPS
Color space                 : YUV
Chroma subsampling          : 4:2:0
Bit depth                   : 8 bits
Scan type                   : Progressive
Bits/(Pixel*Frame)          : 0.214
Stream size                 : 773 MiB (94%)

Default                     : Yes
Forced                      : No

Audio
ID                          : 2
Format                      : AAC
Format/Info                 : Advanced Audio Codec
Format profile              : LC
Codec ID                    : A_AAC
Duration                    : 1 h 36 min
Bit rate                    : 64.3 kb/s
Channel(s)                  : 2 channels
Channel positions           : Front: L R
Sampling rate               : 48.0 kHz
Frame rate                  : 46.875 FPS (1024 spf)
Compression mode            : Lossy
Delay relative to video     : 45 ms
Stream size                 : 44.5 MiB (5%)
Title                       : Stereo
Default                     : Yes
Forced                      : No

Screens:

YouTube Video:
Category:Movies
Language:English  English
Total Size:819.55 MB
Info Hash:04348DC6BFAA8F02EC6CF87639E7DF5A515C6419
Added By:Radioactive Verified UploaderMovie PirateVIP
Date Added:05-10-2016 03:56:33
Torrent Status:Torrent Verified


Ratings:Not Yet Rated (Log in to rate it)


Tracker:
udp://tracker.coppersurfer.tk:6969/announce

This Torrent also has backup trackers
URLSeedersLeechersCompleted
udp://tracker.coppersurfer.tk:6969/announce2033913,772
udp://tracker.coppersurfer.tk:69692033913,772
udp://tracker.opentrackr.org:1337/announce121232,204
udp://tracker.leechers-paradise.org:6969/announce17237172
udp://eddie4.nl:6969/announce17237172
udp://tracker.leechers-paradise.org:696917237172
udp://zer0day.ch:1337/announce000
udp://tracker.aletorrenty.pl:2710/announce000
udp://p4p.arenabg.ch:1337/announce97166,002
udp://9.rarbg.me:2710/announce92118,911
udp://tracker.sktorrent.net:6969/announce000
udp://explodie.org:6969/announce8718999
udp://tracker.trackerfix.com:80/announce000
udp://9.rarbg.to:2710/announce92118,911
udp://tracker.piratepublic.com:1337/announce92191,884


File List: 





Comments
No comments still posted