Login
Username:
Password:
Remember Me:
[Signup]
[Recover Account]
Friends
BTScene
Friendly site

Ale Torrenty Team
Friendly site

Anime RG
Friendly site

KaranPC
Friendly site

P2PDL.com
Friendly site

Free Tutorials & Courses
Friendly site
Torrent Details For "Despicable Me 3 2017 WEB-DL X264 MutzNutz."

Despicable Me 3 2017 WEB-DL X264 MutzNutz.

To download this torrent, you need a BitTorrent client: Vuze or BTGuard
Download this torrent
Download using Magnet Link

Direct Download - no client needed

Download Faster - High Speed Download

Health:
Seeds: 1
Leechers: 0
Completed:
Last Checked: 13-09-2017 12:48:18

Uploader Reputation points : 113944
External: Torrent




Write a Review for the Uploader:   55   Say Thanks with one good review:
Share on Facebook


Details
Name:Despicable Me 3 2017 WEB-DL X264 MutzNutz.
Description:
Despicable Me 3 2017  WEB-DL X264 MutzNutz.

ImDb: http://www.imdb.com/title/tt3469046



Complete name                            : Despicable Me 3 2017  WEB-DL X264 MutzNutz.mp4
Format                                   : MPEG-4
Format profile                           : Base Media
Codec ID                                 : isom (isom/avc1)
File size                                : 2.50 GiB
Duration                                 : 1 h 30 min
Overall bit rate                         : 3 975 kb/s
Encoded date                             : UTC 2017-09-13 10:40:53
Tagged date                              : UTC 2017-09-13 10:40:53

Video
ID                                       : 1
Format                                   : AVC
Format/Info                              : Advanced Video Codec
Format profile                           : [email protected]
Format settings, CABAC                   : Yes
Format settings, ReFrames                : 4 frames
Codec ID                                 : avc1
Codec ID/Info                            : Advanced Video Coding
Duration                                 : 1 h 30 min
Bit rate                                 : 3 591 kb/s
Maximum bit rate                         : 22.7 Mb/s
Width                                    : 1 280 pixels
Height                                   : 528 pixels
Display aspect ratio                     : 2.40:1
Original display aspect ratio            : 2.40:1
Frame rate mode                          : Constant
Frame rate                               : 23.976 (24000/1001) FPS
Color space                              : YUV
Chroma subsampling                       : 4:2:0
Bit depth                                : 8 bits
Scan type                                : Progressive
Bits/(Pixel*Frame)                       : 0.222
Stream size                              : 2.26 GiB (90%)
Writing library                          : x264 core 146 r2538 121396c
Encoding settings                        : cabac=1 / ref=3 / deblock=1:-1:-1 / analyse=0x3:0x113 / me=hex / subme=7 / psy=1 / psy_rd=1.00:0.15 / mixed_ref=1 / me_range=16 / chroma_me=1 / trellis=2 / 8x8dct=1 / cqm=0 / deadzone=21,11 / fast_pskip=1 / chroma_qp_offset=-3 / threads=12 / lookahead_threads=2 / sliced_threads=0 / nr=0 / decimate=1 / interlaced=0 / bluray_compat=0 / constrained_intra=0 / bframes=3 / b_pyramid=2 / b_adapt=1 / b_bias=0 / direct=1 / weightb=1 / open_gop=0 / weightp=2 / keyint=240 / keyint_min=23 / scenecut=40 / intra_refresh=0 / rc_lookahead=40 / rc=2pass / mbtree=1 / bitrate=3591 / ratetol=1.0 / qcomp=0.80 / qpmin=0 / qpmax=69 / qpstep=4 / cplxblur=20.0 / qblur=0.5 / vbv_maxrate=62500 / vbv_bufsize=78125 / nal_hrd=none / filler=0 / ip_ratio=1.40 / aq=1:1.00
Encoded date                             : UTC 2017-09-13 10:40:53
Tagged date                              : UTC 2017-09-13 10:41:38

Audio
ID                                       : 2
Format                                   : AC-3
Format/Info                              : Audio Coding 3
Format settings, Endianness              : Big
Codec ID                                 : ac-3
Duration                                 : 1 h 29 min
Bit rate mode                            : Constant
Bit rate                                 : 384 kb/s
Channel(s)                               : 6 channels
Channel positions                        : Front: L C R, Side: L R, LFE
Sampling rate                            : 48.0 kHz
Frame rate                               : 31.250 FPS (1536 spf)
Bit depth                                : 16 bits
Compression mode                         : Lossy
Stream size                              : 246 MiB (10%)
Language                                 : English
Service kind                             : Complete Main
Encoded date                             : UTC 2017-09-13 10:41:11
Tagged date                              : UTC 2017-09-13 10:41:38






Click To View Screenshot

Click To View Screenshot

Click To View Screenshot
YouTube Video:
Category:Movies
Language:English  English
Total Size:2.50 GB
Info Hash:36935F3DA8EEE031811EC5D8CE3272955AF0FD2D
Added By:Simmoncelli VIPMovie Pirate
Date Added:13-09-2017 12:48:18
Torrent Status:Torrent Verified


Ratings:Not Yet Rated (Log in to rate it)


Tracker:
udp://tracker.coppersurfer.tk:6969/announce

This Torrent also has backup trackers
URLSeedersLeechersCompleted
udp://tracker.coppersurfer.tk:6969/announce000
udp://tracker.pirateparty.gr:6969/announce000
udp://shadowshq.yi.org:6969/announce000
udp://eddie4.nl:6969/announce000
udp://tracker.leechers-paradise.org:6969/announce000
udp://tracker.opentrackr.org:1337/announce000
udp://p4p.arenabg.ch:1337/announce000
udp://p4p.arenabg.com:1337/announce000
udp://9.rarbg.me:2710/announce000
udp://9.rarbg.to:2710/announce000
udp://ipv4.tracker.harry.lu:80/announce000
udp://tracker.grepler.com:6969/announce000
udp://public.popcorn-tracker.org:6969/announce000
udp://tracker.opentrackr.org:1337/announce000
udp://tracker.zer0day.to:1337/announce000


File List: 





Comments
No comments still posted