Download Doraemon-Nobita alla scoperta della luna (2019) ITA-JAP Ac3 5 1 BDRip 1080p H264 [ArMor] torrent - GloDLS
Login
Username:
Password:
Remember Me:
[Signup]
[Recover Account]
Friends
Angie Torrents
Friendly Site

Pirateiro
Friendly site

Free Courses Online
Friendly site

ETTV
Friendly site

KaranPC
Friendly site

P2PDL.com
Friendly site

OneHack
Friendly site

IGGGames
Friendly site

Torrent Details For "Doraemon-Nobita alla scoperta della luna (2019) ITA-JAP Ac3 5 1 BDRip 1080p H264 [ArM..."

Doraemon-Nobita alla scoperta della luna (2019) ITA-JAP Ac3 5 1 BDRip 1080p H264 [ArM...

To download this torrent, you need a BitTorrent client: Vuze or BTGuard
Download this torrent
Download using Magnet Link

Health:
Seeds: 14
Leechers: 0
Completed: 572 
Last Checked: 28-10-2020 23:58:10

Uploader Reputation points : 984
External: Torrent






Write a Review for the Uploader:   0   Say Thanks with one good review:
Share on Facebook


Details
Name:Doraemon-Nobita alla scoperta della luna (2019) ITA-JAP Ac3 5 1 BDRip 1080p H264 [ArM...
Description:







Regista: Lee Jeong-beom, Shinnosuke Yakuwa
Genere: Animazione
Anno: 2019
Paese: Giappone
Distribuzione: Koch Media



Doraemon - Nobita alla scoperta della Luna, film diretto da Jeong-beom Lee e Shinnosuke Yakuwa, racconta di come Nobita, durante una lezione scolastica, affermi di credere nella leggenda giapponese secondo cui la Luna sia abitata da conigli. Tutti i suoi compagni di classe lo scherniscono e lo prendono in giro, così Doraemon per risollevargli il morale gli offre il suo appoggio e il suo aiuto. Il gatto spaziale gli dona il "Distintivo di History Explorers Club" e tramite i suoi gadget ricrea un mondo pieno di conigli sul satellite.

Nobita saw a moon turned yellow last night and told his class about it but they think it's funny. Doraemon gives him the "History Explorers Club Badge" and discovers there's life on the moon. Until a new student changed him forever.












General
Unique ID                                : 244216601029523299528428231779341086455 (0xB7BA680F549373B691CE522B8748AEF7)
Complete name                            : Doraemon-Nobita alla scoperta della luna (2019) ITA-JAP Ac3 5.1 BDRip 1080p H264 [ArMor].mkv
Format                                   : Matroska
Format version                           : Version 4
File size                                : 3.41 GiB
Duration                                 : 1 h 50 min
Overall bit rate                         : 4 408 kb/s
Encoded date                             : UTC 2020-10-18 20:06:09
Writing application                      : mkvmerge v15.0.0 ('Duel with the Devil') 64-bit
Writing library                          : libebml v1.3.5 + libmatroska v1.4.5 / Lavf58.29.100

Video
ID                                       : 1
Format                                   : AVC
Format/Info                              : Advanced Video Codec
Format profile                           : [email protected]
Format settings                          : CABAC / 4 Ref Frames
Format settings, CABAC                   : Yes
Format settings, Reference frames        : 4 frames
Codec ID                                 : V_MPEG4/ISO/AVC
Duration                                 : 1 h 50 min
Bit rate                                 : 3 510 kb/s
Width                                    : 1 920 pixels
Height                                   : 1 080 pixels
Display aspect ratio                     : 16:9
Frame rate mode                          : Constant
Frame rate                               : 23.976 (24000/1001) FPS
Color space                              : YUV
Chroma subsampling                       : 4:2:0
Bit depth                                : 8 bits
Scan type                                : Progressive
Bits/(Pixel*Frame)                       : 0.071
Stream size                              : 2.71 GiB (80%)
Writing library                          : x264 core 157 r2935 545de2f
Encoding settings                        : cabac=1 / ref=2 / deblock=1:0:0 / analyse=0x1:0x111 / me=hex / subme=6 / psy=1 / psy_rd=1.00:0.00 / mixed_ref=1 / me_range=16 / chroma_me=1 / trellis=1 / 8x8dct=0 / cqm=0 / deadzone=21,11 / fast_pskip=1 / chroma_qp_offset=-2 / threads=18 / lookahead_threads=3 / sliced_threads=0 / nr=0 / decimate=1 / interlaced=0 / bluray_compat=0 / constrained_intra=0 / bframes=3 / b_pyramid=2 / b_adapt=1 / b_bias=0 / direct=1 / weightb=1 / open_gop=0 / weightp=1 / keyint=240 / keyint_min=24 / scenecut=40 / intra_refresh=0 / rc_lookahead=30 / rc=crf / mbtree=1 / crf=20.0 / qcomp=0.60 / qpmin=0 / qpmax=69 / qpstep=4 / vbv_maxrate=20000 / vbv_bufsize=25000 / crf_max=0.0 / nal_hrd=none / filler=0 / ip_ratio=1.40 / aq=1:1.00
Default                                  : Yes
Forced                                   : No
Color range                              : Limited
Color primaries                          : BT.709
Transfer characteristics                 : BT.709
Matrix coefficients                      : BT.709

Audio #1
ID                                       : 2
Format                                   : AC-3
Format/Info                              : Audio Coding 3
Commercial name                          : Dolby Digital
Codec ID                                 : A_AC3
Duration                                 : 1 h 50 min
Bit rate mode                            : Constant
Bit rate                                 : 448 kb/s
Channel(s)                               : 6 channels
Channel layout                           : L R C LFE Ls Rs
Sampling rate                            : 48.0 kHz
Frame rate                               : 31.250 FPS (1536 SPF)
Compression mode                         : Lossy
Stream size                              : 355 MiB (10%)
Title                                    : WEBDL
Language                                 : Italian
Service kind                             : Complete Main
Default                                  : Yes
Forced                                   : No

Audio #2
ID                                       : 3
Format                                   : AC-3
Format/Info                              : Audio Coding 3
Commercial name                          : Dolby Digital
Codec ID                                 : A_AC3
Duration                                 : 1 h 50 min
Bit rate mode                            : Constant
Bit rate                                 : 448 kb/s
Channel(s)                               : 6 channels
Channel layout                           : L R C LFE Ls Rs
Sampling rate                            : 48.0 kHz
Frame rate                               : 31.250 FPS (1536 SPF)
Compression mode                         : Lossy
Stream size                              : 355 MiB (10%)
Title                                    : DTS
Language                                 : Japanese
Service kind                             : Complete Main
Default                                  : No
Forced                                   : No


YouTube Video:
Category:Mobile
Language:Italian  Italian
Total Size:3.41 GB
Info Hash:AC65AF1F0A8861D5A63CEB705C608179F19B0B28
Added By:ArMor1 Verified Uploader
Date Added:2020-10-19 21:35:48
Torrent Status:Torrent Verified


Ratings:Not Yet Rated (Log in to rate it)


Tracker:
udp://tracker.coppersurfer.tk:6969/announce

This Torrent also has backup trackers
URLSeedersLeechersCompleted
udp://tracker.coppersurfer.tk:6969/announce000
udp://tracker.opentrackr.org:1337/announce60112
udp://tracker.leechers-paradise.org:6969/announce2024
udp://tracker.zer0day.to:1337/announce000
udp://eddie4.nl:6969/announce000
udp://9.rarbg.me:2790/announce30218
udp://9.rarbg.to:2730/announce30218
udp://9.rarbg.com:2710/announce000
udp://tracker.pirateparty.gr:6969/announce000
udp://p4p.arenabg.com:1337/announce000
http://ipv4.tracker.harry.lu/announce000
http://ipv4.tracker.harry.lu:80/announce000
http://t.nyaatracker.com/announce000
http://t.nyaatracker.com:80/announce000
http://tracker.torrentyorg.pl:80/announce000


File List: 





Comments
No comments still posted