Download Drishyam 2 (2021) 720p Malayalam [Hindi + Urdu + English Subtitles] HDRip x264 (DD 5 1) AC3 By Full4Movies mkv torrent - GloDLS
Torrent Details For "Drishyam 2 (2021) 720p Malayalam [Hindi + Urdu + English Subtitles] HDRip x264 (DD 5 ..."

Drishyam 2 (2021) 720p Malayalam [Hindi + Urdu + English Subtitles] HDRip x264 (DD 5 ...

To download this torrent, you need a BitTorrent client: Vuze or BTGuard
Download this torrent
Download using Magnet Link

Health:
Seeds: 501
Leechers: 1,122
Completed: 665 
Last Checked: 19-02-2021 09:52:07

Uploader Reputation points : 5125
External: Torrent






Write a Review for the Uploader:   5   Say Thanks with one good review:
Share on Facebook


Details
Name:Drishyam 2 (2021) 720p Malayalam [Hindi + Urdu + English Subtitles] HDRip x264 (DD 5 ...
Description:


Visit Us = https://www.full4movies.biz/



General
Complete name                  : Drishyam 2 (2021) 720p Malayalam [Hindi + Urdu + English Subtitles] HDRip x264 (DD 5.1) AC3 By Full4Movies.mkv
Format                         : Matroska
Format version                 : Version 4
File size                      : 1.14 GiB
Duration                       : 2 h 33 min
Overall bit rate               : 1 069 kb/s
Encoded date                   : UTC 2021-02-19 04:18:44
Writing application            : mkvmerge v6.8.0
Writing library                : libebml v1.3.0 + libmatroska v1.4.1

Video
ID                             : 1
Format                         : AVC
Format/Info                    : Advanced Video Codec
Format profile                 : [email protected]
Format settings                : CABAC / 5 Ref Frames
Format settings, CABAC         : Yes
Format settings, Reference fra : 5 frames
Codec ID                       : V_MPEG4/ISO/AVC
Duration                       : 2 h 33 min
Bit rate                       : 856 kb/s
Width                          : 1 280 pixels
Height                         : 528 pixels
Display aspect ratio           : 2.40:1
Original display aspect ratio  : 2.40:1
Frame rate mode                : Constant
Frame rate                     : 24.000 FPS
Color space                    : YUV
Chroma subsampling             : 4:2:0
Bit depth                      : 8 bits
Scan type                      : Progressive
Bits/(Pixel*Frame)             : 0.053
Stream size                    : 938 MiB (80%)
Language                       : Malayalam
Default                        : Yes
Forced                         : No
Color range                    : Limited
Color primaries                : BT.709
Transfer characteristics       : BT.709
Matrix coefficients            : BT.709

Audio
ID                             : 2
Format                         : E-AC-3
Format/Info                    : Enhanced AC-3
Commercial name                : Dolby Digital Plus
Codec ID                       : A_EAC3
Duration                       : 2 h 33 min
Bit rate mode                  : Constant
Bit rate                       : 192 kb/s
Channel(s)                     : 6 channels
Channel layout                 : L R C LFE Ls Rs
Sampling rate                  : 48.0 kHz
Frame rate                     : 31.250 FPS (1536 SPF)
Compression mode               : Lossy
Stream size                    : 210 MiB (18%)
Language                       : Malayalam
Service kind                   : Complete Main
Default                        : Yes
Forced                         : No

Text #1
ID                             : 3
Format                         : UTF-8
Codec ID                       : S_TEXT/UTF8
Codec ID/Info                  : UTF-8 Plain Text
Language                       : Hindi
Default                        : Yes
Forced                         : No

Text #2
ID                             : 4
Format                         : UTF-8
Codec ID                       : S_TEXT/UTF8
Codec ID/Info                  : UTF-8 Plain Text
Language                       : Urdu
Default                        : No
Forced                         : No

Screen Shoots






YouTube Video:
Category:Movies
Language:Aucune/N/D
Total Size:1.14 GB
Info Hash:FAFE477D70EA6315702136A698D23EE11C4B5D84
Added By:india4movie Verified Uploader
Date Added:2021-02-19 13:22:16
Torrent Status:Torrent Verified


Ratings:Not Yet Rated (Log in to rate it)


Tracker:
udp://tracker.opentrackr.org:1337/announce

This Torrent also has backup trackers
URLSeedersLeechersCompleted
udp://tracker.opentrackr.org:1337/announce103255198
udp://tracker.cyberia.is:6969/announce5811667
udp://9.rarbg.me:2980/announce85172149
udp://open.stealth.si:80/announce306330
udp://exodus.desync.com:6969/announce195334
udp://tracker.moeking.me:6969/announce407626
udp://explodie.org:6969/announce10390
udp://tracker.openbittorrent.com:80/announce11216
udp://inferno.demonoid.is:3391/announce285529
udp://tracker.torrent.eu.org:451/announce255933
udp://ipv4.tracker.harry.lu:80/announce15340
udp://tracker.uw0.xyz:6969/announce295931
udp://tracker.coppersurfer.tk:6969/announce000
udp://exodus.desync.com:6969/announce195334
udp://tracker.tiny-vps.com:6969/announce296728


File List: 





Comments
No comments still posted