Login
Username:
Password:
Remember Me:
[Signup]
[Recover Account]
Friends
BTScene
Friendly site

Free Courses Online
Friendly site

Anime RG
Friendly site

KaranPC
Friendly site

P2PDL.com
Friendly site

Free Tutorials & Courses
Friendly site
Torrent Details For "Early Man 2018 HD-CAM x264 AAC"

Early Man 2018 HD-CAM x264 AAC

To download this torrent, you need a BitTorrent client: Vuze or BTGuard
Download this torrent
Download using Magnet Link

Direct Download - no client needed

Download Faster - High Speed Download

Health:
Seeds: 548
Leechers: 75
Completed: 7,817 
Last Checked: 14-03-2018 07:27:54

Uploader Reputation points : 3060
External: Torrent




Write a Review for the Uploader:   15   Say Thanks with one good review:
Share on Facebook


Details
Name:Early Man 2018 HD-CAM x264 AAC
Description:





General
Format                                   : Matroska
Format version                           : Version 4 / Version 2
File size                                : 799 MiB
Duration                                 : 1 h 17 min
Overall bit rate                         : 1 435 kb/s

Video
ID                                       : 1
Format                                   : AVC
Format/Info                              : Advanced Video Codec
Format profile                           : [email protected]
Format settings                          : CABAC / 4 Ref Frames
Format settings, CABAC                   : Yes
Format settings, RefFrames               : 4 frames
Codec ID                                 : V_MPEG4/ISO/AVC
Duration                                 : 1 h 17 min
Bit rate                                 : 1 300 kb/s
Width                                    : 720 pixels
Height                                   : 456 pixels
Display aspect ratio                     : 16:10
Frame rate mode                          : Constant
Frame rate                               : 29.970 (30000/1001) FPS
Color space                              : YUV
Chroma subsampling                       : 4:2:0
Bit depth                                : 8 bits
Scan type                                : Progressive
Bits/(Pixel*Frame)                       : 0.132
Stream size                              : 726 MiB (91%)
Writing library                          : x264 core 148 r2708 86b7198
Default                                  : Yes
Forced                                   : No

Audio
ID                                       : 2
Format                                   : AAC
Format/Info                              : Advanced Audio Codec
Format profile                           : LC
Codec ID                                 : A_AAC-2
Duration                                 : 1 h 17 min
Bit rate                                 : 128 kb/s
Channel(s)                               : 2 channels
Channel positions                        : Front: L R
Sampling rate                            : 44.1 kHz
Frame rate                               : 43.066 FPS (1024 SPF)
Compression mode                         : Lossy
Stream size                              : 71.2 MiB (9%)
Default                                  : Yes
Forced                                   : No












YouTube Video:
Category:Movies
Language:English  English
Total Size:798.84 MB
Info Hash:1A1845D19459ACD2979C5DA36963306166117254
Added By:MovieFreak Verified UploaderMovie Pirate
Date Added:11-03-2018 13:07:01
Torrent Status:Torrent Verified


Ratings:Not Yet Rated (Log in to rate it)


Tracker:
udp://tracker.pirateparty.gr:6969/announce

This Torrent also has backup trackers
URLSeedersLeechersCompleted
udp://tracker.pirateparty.gr:6969/announce417638
udp://tracker.opentrackr.org:1337/announce457550
http://tracker.opentrackr.org/announce000
udp://tracker.vanitycore.co:6969/announce444531
udp://public.popcorn-tracker.org:6969/announce4610536
udp://9.rarbg.to:2710/announce392994
udp://9.rarbg.me:2710/announce392994
udp://9.rarbg.com:2770/announce392994
udp://inferno.demonoid.pw:3391/announce358353
udp://tracker.internetwarriors.net:1337/announce392316
udp://ipv4.tracker.harry.lu:80/announce1110
udp://p4p.arenabg.ch:1337/announce408422
http://tracker.vanitycore.co:6969/announce444531
http://public.popcorn-tracker.org:6969/announce4610536
udp://tracker.zer0day.to:1337/announce408422


File List: 





Comments
No comments still posted