Download First Man (2018) 720p Pre-DVDRip x264 AAC by Full4movies torrent - GloDLS
Login
Username:
Password:
Remember Me:
[Signup]
[Recover Account]
Friends
BTScene
Friendly site

Free Courses Online
Friendly site

ETTV Community
Friendly site

KaranPC
Friendly site

P2PDL.com
Friendly site

Free Tutorials & Courses
Friendly site

Pirateiro
Friendly site
Torrent Details For "First Man (2018) 720p Pre-DVDRip x264 AAC by Full4movies"

First Man (2018) 720p Pre-DVDRip x264 AAC by Full4movies

To download this torrent, you need a BitTorrent client: Vuze or BTGuard
Download this torrent
Download using Magnet Link

Health:
Seeds: 3,052
Leechers: 684
Completed: 337,015 
Last Checked: 02-11-2018 17:21:40

Uploader Reputation points : 2570
External: Torrent






Write a Review for the Uploader:   5   Say Thanks with one good review:
Share on Facebook


Details
Name:First Man (2018) 720p Pre-DVDRip x264 AAC by Full4movies
Description:


General
Complete name                  : First Man (2018) 720p Pre-DVDRip x264 AAC by Full4movies.mkv
Format                         : Matroska
Format version                 : Version 4 / Version 2
File size                      : 963 MiB
Duration                       : 2 h 12 min
Overall bit rate               : 1 018 kb/s
Movie name                     : www.Full4movies.co
Encoded date                   : UTC 2018-10-13 10:49:22
Writing application            : mkvmerge v8.1.0 ('Psychedelic Postcard') 32bit
Writing library                : libebml v1.3.1 + libmatroska v1.4.2

Video
ID                             : 1
Format                         : AVC
Format/Info                    : Advanced Video Codec
Format profile                 : [email protected]
Format settings, CABAC         : Yes
Format settings, RefFrames     : 4 frames
Codec ID                       : V_MPEG4/ISO/AVC
Duration                       : 2 h 12 min
Bit rate                       : 937 kb/s
Width                          : 1 280 pixels
Height                         : 536 pixels
Display aspect ratio           : 2.40:1
Frame rate mode                : Constant
Frame rate                     : 29.970 (30000/1001) FPS
Color space                    : YUV
Chroma subsampling             : 4:2:0
Bit depth                      : 8 bits
Scan type                      : Progressive
Bits/(Pixel*Frame)             : 0.046
Stream size                    : 885 MiB (92%)
Writing library                : x264 core 155 r2901 7d0ff22
Default                        : Yes
Forced                         : No
Color range                    : Limited
Color primaries                : BT.709
Transfer characteristics       : BT.709
Matrix coefficients            : BT.709

Audio
ID                             : 2
Format                         : AAC
Format/Info                    : Advanced Audio Codec
Format profile                 : LC
Codec ID                       : A_AAC
Duration                       : 2 h 12 min
Bit rate                       : 80.3 kb/s
Channel(s)                     : 2 channels
Channel positions              : Front: L R
Sampling rate                  : 48.0 kHz
Frame rate                     : 46.875 FPS (1024 SPF)
Compression mode               : Lossy
Delay relative to video        : -21 ms
Stream size                    : 75.9 MiB (8%)
Language                       : English
Default                        : Yes
Forced                         : No

Screen Shoots
YouTube Video:   
Category:Movies
Language:English  English
Total Size:962.96 MB
Info Hash:0510BE6F5C6924B23B3B7D52FE3F69C7444207B7
Added By:india4movie Verified Uploader
Date Added:15-10-2018 17:00:35
Torrent Status:Torrent Verified


Ratings:Not Yet Rated (Log in to rate it)


Tracker:
udp://tracker.coppersurfer.tk:6969/announce

This Torrent also has backup trackers
URLSeedersLeechersCompleted
udp://tracker.coppersurfer.tk:6969/announce3569230,369
udp://tracker.leechers-paradise.org:6969/announce000
udp://tracker.pirateparty.gr:6969/announce3569230,369
udp://tracker.coppersurfer.tk:69693569230,369
udp://open.demonii.si:1337/announce1994315,564
udp://tracker.tiny-vps.com:6969/announce1964515,667
udp://9.rarbg.me:2710/announce000
udp://9.rarbg.to:2710/announce26252125,597
udp://public.popcorn-tracker.org:6969/announce2194417,425
udp://tracker.torrent.eu.org:451/announce1753914,429
udp://tracker.vanitycore.co:6969/announce2223617,557
udp://ipv4.tracker.harry.lu:80/announce133340
udp://tracker.opentrackr.org:1337/announce3446222,963
udp://exodus.desync.com:6969/announce1643312,908
udp://tracker.cypherpunks.ru:6969/announce70203,798


File List: 





Comments

[Report] Posted: 15-10-2018 at 21:20:28
Morningstar
The Oracle
avatar

profile message
Are the screenshots correct?  They sure don't look it.
Man is least himself when he talks in his own person. Give him a mask, and he will tell you the truth. (Oscar Wilde)