Login
Username:
Password:
Remember Me:
[Signup]
[Recover Account]
Friends
BTScene
Friendly site

Free Courses Online
Friendly site

Anime RG
Friendly site

KaranPC
Friendly site

P2PDL.com
Friendly site

Free Tutorials & Courses
Friendly site
Torrent Details For "Gangland Undercover - Complete Series 1-6 - X264 - Maxillion - [GloTV]"

Gangland Undercover - Complete Series 1-6 - X264 - Maxillion - [GloTV]

To download this torrent, you need a BitTorrent client: Vuze or BTGuard
Download this torrent
Download using Magnet Link

Direct Download - no client needed

Download Faster - High Speed Download

Health:
Seeds: 16
Leechers: 7
Completed: 508 
Last Checked: 02-01-2016 22:28:24

Uploader Reputation points : 2408
External: Torrent




Write a Review for the Uploader:   50   Say Thanks with one good review:
Share on Facebook


Details
Name:Gangland Undercover - Complete Series 1-6 - X264 - Maxillion - [GloTV]
Description:



HISTORY is taking viewers inside a covert operation in the new fact-based drama series, GANGLAND UNDERCOVER, which chronicles meth dealer turned ATF infiltrator Charles Falco’s mission inside one of America’s most notoriously violent outlaw motorcycle gangs. Giving a rare look inside this historically Infamous organized crime gang through of the eyes of an undercover investigator, the six-episode series premieres on HISTORY Tuesday, February 24 at 10 PM ET/PT and is based on Falco’s 2013 memoir, “Vagos, Mongols, and Outlaws: My Infiltration of America’s Deadliest Biker Gangs.



Format                                   : MPEG-4
Format profile                           : Base Media
Codec ID                                 : isom
File size                                : 161 MiB
Duration                                 : 41mn 54s
Overall bit rate                         : 536 Kbps
Movie name                               : Gangland Undercover - S01E01 - Going Under - X264 -
Performer                                : Maxillion
Writing application                      : Lavf56.1.0
Comment                                  : A Maxillion Encode

Video
ID                                       : 1
Format                                   : AVC
Format/Info                              : Advanced Video Codec
Format profile                           : [email protected]
Format settings, CABAC                   : Yes
Format settings, ReFrames                : 4 frames
Codec ID                                 : avc1
Codec ID/Info                            : Advanced Video Coding
Duration                                 : 41mn 54s
Bit rate                                 : 339 Kbps
Width                                    : 700 pixels
Height                                   : 400 pixels
Display aspect ratio                     : 16:9
Original display aspect ratio            : 16:9
Frame rate mode                          : Variable
Frame rate                               : 23.976 fps
Minimum frame rate                       : 23.810 fps
Maximum frame rate                       : 24.390 fps
Color space                              : YUV
Chroma subsampling                       : 4:2:0
Bit depth                                : 8 bits
Scan type                                : Progressive
Bits/(Pixel*Frame)                       : 0.051
Stream size                              : 102 MiB (63%)
Writing library                          : x264 core 142 r2431 a5831aa
Encoding settings                        : cabac=1 / ref=1 / deblock=1:0:0 / analyse=0x1:0x111 / me=hex / subme=2 / psy=1 / psy_rd=1.00:0.00 / mixed_ref=0 / me_range=16 / chroma_me=1 / trellis=0 / 8x8dct=0 / cqm=0 / deadzone=21,11 / fast_pskip=1 / chroma_qp_offset=0 / threads=12 / lookahead_threads=3 / sliced_threads=0 / nr=0 / decimate=1 / interlaced=0 / bluray_compat=0 / constrained_intra=0 / bframes=3 / b_pyramid=2 / b_adapt=1 / b_bias=0 / direct=1 / weightb=1 / open_gop=0 / weightp=1 / keyint=240 / keyint_min=24 / scenecut=40 / intra_refresh=0 / rc_lookahead=10 / rc=crf / mbtree=1 / crf=25.0 / qcomp=0.60 / qpmin=0 / qpmax=69 / qpstep=4 / vbv_maxrate=20000 / vbv_bufsize=25000 / crf_max=0.0 / nal_hrd=none / filler=0 / ip_ratio=1.40 / aq=1:1.00
Color primaries                          : BT.709
Transfer characteristics                 : BT.709
Matrix coefficients                      : BT.709

Audio
ID                                       : 2
Format                                   : AC-3
Format/Info                              : Audio Coding 3
Format profile                           : Dolby Digital
Mode extension                           : CM (complete main)
Format settings, Endianness              : Big
Codec ID                                 : ac-3
Duration                                 : 41mn 54s
Bit rate mode                            : Constant
Bit rate                                 : 192 Kbps
Channel(s)                               : 2 channels
Channel positions                        : Front: L R
Sampling rate                            : 32.0 KHz
Bit depth                                : 16 bits
Compression mode                         : Lossy
Stream size                              : 57.5 MiB (36%)
YouTube Video:
Category:Packs
Language:English  English
Total Size:928.54 MB
Info Hash:3B74E170F22B261475A31BF60F9997306EE83892
Added By:Maxillion
Date Added:07-04-2015 05:24:07
Torrent Status:Unverified Torrent


Ratings:Not Yet Rated (Log in to rate it)


Tracker:
udp://tracker.openbittorrent.com:80/announce

This Torrent also has backup trackers
URLSeedersLeechersCompleted
udp://tracker.openbittorrent.com:80/announce000
udp://tracker.publicbt.com:80/announce000
udp://open.demonii.com:1337/announce000
udp://tracker.glotorrents.com:6969/announce000
udp://glotorrents.com:6969/announce000
udp://glotorrents.pw:6969/announce000


File List: 





Comments

[Report] Posted: 07-04-2015 at 05:34:52
Maxillion

avatar

profile message
I loved this series! Very realistic and well done. Highly recommended!