Login
Username:
Password:
Remember Me:
[Signup]
[Recover Account]
Friends
BTScene
Friendly site

Ale Torrenty Team
Friendly site

Anime RG
Friendly site

KaranPC
Friendly site

P2PDL.com
Friendly site

Free Tutorials & Courses
Friendly site
Torrent Details For "Ghost.Wars.S01E02.iNTERNAL.720p.WEB.x264-BAMBOOZLE"

Ghost.Wars.S01E02.iNTERNAL.720p.WEB.x264-BAMBOOZLE

To download this torrent, you need a BitTorrent client: Vuze or BTGuard
Download this torrent
Download using Magnet Link

Direct Download - no client needed

Download Faster - High Speed Download

Health:
Seeds: 1
Leechers: 0
Completed:
Last Checked: 13-10-2017 13:30:37

Uploader Reputation points : 119376
External: Torrent




Write a Review for the Uploader:   55   Say Thanks with one good review:
Share on Facebook
TV Info

Ghost Wars

Set in a remote Alaskan town that has been overrun by paranormal forces, the series focuses on local outcast Roman Mercer who must overcome the town’s prejudices and his own personal demons if he’s to harness his repressed psychic powers and save everyone from the mass haunting that’s threatening to destroy them all.



Details
Name:Ghost.Wars.S01E02.iNTERNAL.720p.WEB.x264-BAMBOOZLE
Description:
Ghost.Wars.S01E02.iNTERNAL.720p.WEB.x264-BAMBOOZLE



Complete name                            : ghost.wars.s01e02.internal.720p.web.x264-bamboozle.mkv
Format                                   : Matroska
Format version                           : Version 4 / Version 2
File size                                : 836 MiB
Duration                                 : 43 min 18 s
Overall bit rate                         : 2 699 kb/s
Encoded date                             : UTC 2017-10-13 12:20:36
Writing application                      : mkvmerge v8.8.0 ('Wind at my back') 64bit
Writing library                          : libebml v1.3.3 + libmatroska v1.4.4

Video
ID                                       : 1
Format                                   : AVC
Format/Info                              : Advanced Video Codec
Format profile                           : [email protected]
Format settings, CABAC                   : Yes
Format settings, ReFrames                : 1 frame
Format settings, GOP                     : M=1, N=48
Codec ID                                 : V_MPEG4/ISO/AVC
Duration                                 : 43 min 18 s
Bit rate                                 : 2 560 kb/s
Width                                    : 1 280 pixels
Height                                   : 720 pixels
Display aspect ratio                     : 16:9
Frame rate mode                          : Variable
Frame rate                               : 23.976 (24000/1001) FPS
Color space                              : YUV
Chroma subsampling                       : 4:2:0
Bit depth                                : 8 bits
Scan type                                : Progressive
Bits/(Pixel*Frame)                       : 0.116
Stream size                              : 805 MiB (96%)
Writing library                          : x264 core 120
Encoding settings                        : cabac=1 / ref=1 / deblock=1:0:0 / analyse=0x1:0x111 / me=hex / subme=6 / psy=1 / psy_rd=1.00:0.00 / mixed_ref=0 / me_range=16 / chroma_me=0 / trellis=1 / 8x8dct=0 / cqm=0 / deadzone=21,11 / fast_pskip=1 / chroma_qp_offset=-2 / threads=8 / sliced_threads=0 / nr=0 / decimate=1 / interlaced=0 / bluray_compat=0 / constrained_intra=0 / bframes=0 / weightp=2 / keyint=48 / keyint_min=25 / scenecut=0 / intra_refresh=0 / rc=abr / mbtree=0 / bitrate=2560 / ratetol=1.0 / qcomp=0.60 / qpmin=10 / qpmax=51 / qpstep=4 / ip_ratio=1.40 / aq=1:1.00
Default                                  : Yes
Forced                                   : No

Audio
ID                                       : 2
Format                                   : AAC
Format/Info                              : Advanced Audio Codec
Format profile                           : LC
Codec ID                                 : A_AAC
Duration                                 : 43 min 18 s
Bit rate                                 : 96.0 kb/s
Channel(s)                               : 2 channels
Channel positions                        : Front: L R
Sampling rate                            : 44.1 kHz
Frame rate                               : 43.066 FPS (1024 spf)
Compression mode                         : Lossy
Stream size                              : 29.7 MiB (4%)
Default                                  : Yes
Forced                                   : No






Click To View Screenshot

Click To View Screenshot

Click To View Screenshot
YouTube Video:
Category:TV
Language:English  English
Total Size:836.03 MB
Info Hash:A8E37B4836BE3FC375D1E6C927D783252C20AF53
Added By:Simmoncelli VIPMovie Pirate
Date Added:13-10-2017 13:30:37
Torrent Status:Torrent Verified


Ratings:Not Yet Rated (Log in to rate it)


Tracker:
udp://tracker.coppersurfer.tk:6969/announce

This Torrent also has backup trackers
URLSeedersLeechersCompleted
udp://tracker.coppersurfer.tk:6969/announce000
udp://tracker.pirateparty.gr:6969/announce000
udp://shadowshq.yi.org:6969/announce000
udp://eddie4.nl:6969/announce000
udp://tracker.leechers-paradise.org:6969/announce000
udp://tracker.opentrackr.org:1337/announce000
udp://p4p.arenabg.ch:1337/announce000
udp://p4p.arenabg.com:1337/announce000
udp://9.rarbg.me:2710/announce000
udp://9.rarbg.to:2710/announce000
udp://ipv4.tracker.harry.lu:80/announce000
udp://tracker.grepler.com:6969/announce000
udp://public.popcorn-tracker.org:6969/announce000
udp://tracker.opentrackr.org:1337/announce000
udp://tracker.zer0day.to:1337/announce000


File List: 





Comments
No comments still posted