Login
Username:
Password:
Remember Me:
[Signup]
[Recover Account]
Friends
BTScene
Friendly site

Ale Torrenty Team
Friendly site

Anime RG
Friendly site

KaranPC
Friendly site

P2PDL.com
Friendly site

Free Tutorials & Courses
Friendly site
Torrent Details For "I Am Frankie S01E02 I am… a Rom-Com Fan 1080p NICK WEBRip AAC2.0 x264-LAZY"

I Am Frankie S01E02 I am… a Rom-Com Fan 1080p NICK WEBRip AAC2.0 x264-LAZY

To download this torrent, you need a BitTorrent client: Vuze or BTGuard
Download this torrent
Download using Magnet Link

Direct Download - no client needed

Download Faster - High Speed Download

Health:
Seeds: 6
Leechers: 7
Completed: 12 
Last Checked: 13-09-2017 22:09:22

Uploader Reputation points : 127
External: Torrent




Write a Review for the Uploader:   5   Say Thanks with one good review:
Share on Facebook
TV Info

I Am Frankie

“I Am Frankie” is the story of Frankie, an experimental android who navigates the perils and wonders of being a teenager. Frankie looks like any other girl, but functions like the newest computer: complete with Internet access, extensive memory and a hard disk. Frankie goes to school and no one but the members of her family know her secret. She adapts to the real world quite well, despite having no feelings or emotions, but all that changes when she begins to experience family life, make friends and have a boyfriend.



Details
Name:I Am Frankie S01E02 I am… a Rom-Com Fan 1080p NICK WEBRip AAC2.0 x264-LAZY
Description:
I Am Frankie:

Video
ID                                       : 1
Format                                   : AVC
Format/Info                              : Advanced Video Codec
Format profile                           : [email protected]
Format settings, CABAC                   : Yes
Format settings, RefFrames               : 4 frames
Codec ID                                 : V_MPEG4/ISO/AVC
Duration                                 : 22 min 32 s
Bit rate                                 : 4 725 kb/s
Width                                    : 1 920 pixels
Height                                   : 1 080 pixels
Display aspect ratio                     : 16:9
Frame rate mode                          : Constant
Frame rate                               : 23.976 (23976/1000) FPS
Color space                              : YUV
Chroma subsampling                       : 4:2:0
Bit depth                                : 8 bits
Scan type                                : Progressive
Bits/(Pixel*Frame)                       : 0.095
Stream size                              : 762 MiB (97%)
Writing library                          : x264 core 148
Encoding settings                        : cabac=1 / ref=4 / deblock=1:0:0 / analyse=0x3:0x113 / me=umh / subme=10 / psy=1 / psy_rd=1.00:0.15 / mixed_ref=1 / me_range=32 / chroma_me=1 / trellis=2 / 8x8dct=1 / cqm=0 / deadzone=21,11 / fast_pskip=1 / chroma_qp_offset=-3 / threads=24 / lookahead_threads=6 / sliced_threads=0 / nr=0 / decimate=1 / interlaced=0 / bluray_compat=0 / constrained_intra=0 / bframes=3 / b_pyramid=0 / b_adapt=2 / b_bias=0 / direct=3 / weightb=1 / open_gop=0 / weightp=2 / keyint=48 / keyint_min=4 / scenecut=0 / intra_refresh=0 / rc_lookahead=48 / rc=crf / mbtree=1 / crf=19.0 / qcomp=0.75 / qpmin=10 / qpmax=51 / qpstep=4 / vbv_maxrate=5000 / vbv_bufsize=10000 / crf_max=0.0 / nal_hrd=none / filler=0 / ip_ratio=1.40 / aq=1:0.80
Language                                 : English
Default                                  : Yes
Forced                                   : No

Audio
ID                                       : 2
Format                                   : AAC
Format/Info                              : Advanced Audio Codec
Format profile                           : LC
Codec ID                                 : A_AAC
Duration                                 : 22 min 32 s
Bit rate                                 : 128 kb/s
Channel(s)                               : 2 channels
Channel positions                        : Front: L R
Sampling rate                            : 48.0 kHz
Frame rate                               : 46.875 FPS (1024 SPF)
Compression mode                         : Lossy
Delay relative to video                  : -41 ms
Stream size                              : 20.6 MiB (3%)
Language                                 : English
Default                                  : Yes
Forced                                   : No

Text
ID                                       : 3
Format                                   : UTF-8
Codec ID                                 : S_TEXT/UTF8
Codec ID/Info                            : UTF-8 Plain Text
Duration                                 : 22 min 6 s
Bit rate                                 : 142 b/s
Count of elements                        : 582
Stream size                              : 23.1 KiB (0%)
Language                                 : English
Default                                  : Yes
Forced                                   : No

Screenshots:
YouTube Video:   
Category:TV
Language:English  English
Total Size:782.68 MB
Info Hash:55EED2DA64CC1C30D520CA312FA3056A73E16BDF
Added By:LazyRips Verified Uploader
Date Added:13-09-2017 16:37:24
Torrent Status:Torrent Verified


Ratings:Not Yet Rated (Log in to rate it)


Tracker:
udp://tracker.opentrackr.org:1337/announce

This Torrent also has backup trackers
URLSeedersLeechersCompleted
udp://tracker.opentrackr.org:1337/announce000
udp://tracker.coppersurfer.tk:6969/announce336
udp://9.rarbg.me:2780/announce346
udp://glotorrents.pw:6969/announce000
udp://tracker.istole.it:80/announce000
udp://tracker4.piratux.com:6969/announce000
udp://tracker.publicbt.com:80/announce000
udp://coppersurfer.tk:6969/announce000
udp://open.demonii.com:1337/announce000
udp://tracker.openbittorrent.com:80/announce000


File List: 





Comments
No comments still posted