Download Inxs - Kick (1987) Flac-was95 torrent - GloDLS
Torrent Details For "Inxs - Kick (1987) Flac-was95"

Inxs - Kick (1987) Flac-was95

To download this torrent, you need a BitTorrent client: Vuze or BTGuard
Download this torrent
Download using Magnet Link

Health:
Seeds: 0
Leechers: 0
Completed:
Last Checked: 23-08-2019 12:11:37

Uploader Reputation points : 618
External: Torrent






Write a Review for the Uploader:   5   Say Thanks with one good review:
Share on Facebook


Details
Name:Inxs - Kick (1987) Flac-was95
Description:


Quality-Lossless
Release-1987
Duration-00:39:52
File Size-311 MB
Genre-Rock
Cover Size-1380px

?----------------------------------------------------------------------------------------------
Analyzed: Kick (Remastered 2011) /  Artist: INXS
----------------------------------------------------------------------------------------------
DR Peak RMS Duration Title [codec]
----------------------------------------------------------------------------------------------
DR7 -0.03 dB -8.41 dB 2:20 01 - Guns In The Sky [flac]
DR8 -0.03 dB -9.06 dB 3:39 02 - New Sensation [flac]
DR7 -0.04 dB -8.37 dB 5:15 03 - Devil Inside [flac]
DR9 -0.09 dB -10.09 dB 3:00 04 - Need You Tonight [flac]
DR8 -0.11 dB -10.17 dB 2:35 05 - Mediate [flac]
DR8 -0.12 dB -9.98 dB 3:35 06 - The Loved One [flac]
DR8 -0.08 dB -9.27 dB 3:10 07 - Wild Life [flac]
DR8 -0.11 dB -10.82 dB 3:06 08 - Never Tear Us Apart [flac]
DR8 -0.08 dB -9.81 dB 3:16 09 - Mystify [flac]
DR8 -0.10 dB -9.29 dB 3:14 10 - Kick [flac]
DR8 -0.09 dB -9.08 dB 3:02 11 - Calling All Nations [flac]
DR8 -0.11 dB -9.14 dB 3:33 12 - Tiny Daggers [flac]
----------------------------------------------------------------------------------------------
Number of files:    12
Official DR value:  DR8

Sampling rate: 44100 Hz
Average bitrate: 1033kbs
Bits per sample: 16 bit
YouTube Video:
Category:FLAC
Language:Aucune/N/D
Total Size:296.77 MB
Info Hash:25F6B31259F605FE182728AE0E6C5572FB04765B
Added By:was95was Verified UploaderMusic Lover
Date Added:2019-08-23 19:11:34
Torrent Status:Torrent Verified


Ratings:Not Yet Rated (Log in to rate it)


Tracker:
udp://tracker.piratepublic.com:1337/announce

This Torrent also has backup trackers
URLSeedersLeechersCompleted
udp://tracker.piratepublic.com:1337/announce000
udp://tracker.pirateparty.gr:6969/announce000
udp://tracker.coppersurfer.tk:6969/announce000
udp://tracker.leechers-paradise.org:6969/announce000
udp://9.rarbg.com:2710/announce000
http://p4p.arenabg.com:1337/announce000
http://explodie.org:6969/announce000
udp://tracker.opentrackr.org:1337/announce000
udp://exodus.desync.com:6969/announce000
udp://tracker.leechers-paradise.org:6969/announce000
udp://tracker.zer0day.to:1337/announce000
udp://open.demonii.si:1337/announce000
udp://exodus.desync.com:6969/announce000
udp://tracker.iamhansen.xyz:2000/announce000


File List: 





Comments
No comments still posted