Download Johanna Elina - Our Garden (2019) Flac-was95 torrent - GloDLS
Torrent Details For "Johanna Elina - Our Garden (2019) Flac-was95"

Johanna Elina - Our Garden (2019) Flac-was95

To download this torrent, you need a BitTorrent client: Vuze or BTGuard
Download this torrent
Download using Magnet Link

Health:
Seeds: 0
Leechers: 0
Completed:
Last Checked: 22-08-2019 11:35:50

Uploader Reputation points : 618
External: Torrent






Write a Review for the Uploader:   5   Say Thanks with one good review:
Share on Facebook


Details
Name:Johanna Elina - Our Garden (2019) Flac-was95
Description:


Quality-Lossless
Release-2019
Duration-00:47:00
File Size-258 MB
Genre-Jazz
Cover Size-1200px

?----------------------------------------------------------------------------------------------
Analyzed: Our Garden /  Artist: Johanna Elina
----------------------------------------------------------------------------------------------
DR Peak RMS Duration Title [codec]
----------------------------------------------------------------------------------------------
DR8 -0.10 dB -10.99 dB 5:15 01 - Our Garden [flac]
DR8 -0.10 dB -11.19 dB 5:40 02 - Mistakes [flac]
DR10 -0.10 dB -14.12 dB 5:21 03 - It Only Snows in Winter [flac]
DR8 -0.10 dB -12.21 dB 4:09 04 - Dream of a Family [flac]
DR11 -0.10 dB -16.30 dB 2:31 05 - How Can You Resist Love [flac]
DR9 -0.10 dB -12.51 dB 5:51 06 - Strange Shore [flac]
DR12 -1.25 dB -19.32 dB 2:35 07 - Circles [flac]
DR10 -0.10 dB -13.96 dB 7:37 08 - First Time Love [flac]
DR10 -0.10 dB -13.71 dB 5:00 09 - April Moon [flac]
DR9 -1.39 dB -14.67 dB 2:54 10 - Sleep [flac]
----------------------------------------------------------------------------------------------
Number of files:    10
Official DR value:  DR10

Sampling rate: 44100 Hz
Average bitrate: 712kbs
Bits per sample: 16 bit
YouTube Video:
Category:FLAC
Language:Aucune/N/D
Total Size:246.20 MB
Info Hash:FA3BE2652DDCADA614D10767B3A2C8421C431845
Added By:was95was Verified UploaderMusic Lover
Date Added:2019-08-22 18:35:47
Torrent Status:Torrent Verified


Ratings:Not Yet Rated (Log in to rate it)


Tracker:
udp://tracker.piratepublic.com:1337/announce

This Torrent also has backup trackers
URLSeedersLeechersCompleted
udp://tracker.piratepublic.com:1337/announce000
udp://tracker.pirateparty.gr:6969/announce000
udp://tracker.coppersurfer.tk:6969/announce000
udp://tracker.leechers-paradise.org:6969/announce000
udp://9.rarbg.com:2710/announce000
http://p4p.arenabg.com:1337/announce000
http://explodie.org:6969/announce000
udp://tracker.opentrackr.org:1337/announce000
udp://exodus.desync.com:6969/announce000
udp://tracker.leechers-paradise.org:6969/announce000
udp://tracker.zer0day.to:1337/announce000
udp://open.demonii.si:1337/announce000
udp://exodus.desync.com:6969/announce000
udp://tracker.iamhansen.xyz:2000/announce000


File List: 





Comments
No comments still posted