Download L uomo da 6 milioni di dollari-6 million dollar man-Stagione 1-Season 1 (1973-1974) DVDRip [ArMor] torrent - GloDLS
Login
Username:
Password:
Remember Me:
[Signup]
[Recover Account]
Friends
Angie Torrents
Friendly Site

Pirateiro
Friendly site

Free Courses Online
Friendly site

ETTV
Friendly site

KaranPC
Friendly site

P2PDL.com
Friendly site

OneHack
Friendly site

IGGGames
Friendly site

Torrent Details For "L uomo da 6 milioni di dollari-6 million dollar man-Stagione 1-Season 1 (1973-1974) D..."

L uomo da 6 milioni di dollari-6 million dollar man-Stagione 1-Season 1 (1973-1974) D...

To download this torrent, you need a BitTorrent client: Vuze or BTGuard
Download this torrent
Download using Magnet Link

Health:
Seeds: 0
Leechers: 0
Completed:
Last Checked: 21-11-2020 19:04:02

Uploader Reputation points : 976
External: Torrent






Write a Review for the Uploader:   0   Say Thanks with one good review:
Share on Facebook


Details
Name:L uomo da 6 milioni di dollari-6 million dollar man-Stagione 1-Season 1 (1973-1974) D...
Description:








Titolo originale The Six Million Dollar Man
Paese Stati Uniti d'America
Anno 1974-1978
Formato serie TV
Genere azione, fantascienza
Stagioni 5 ma in Italia andate in onda solo 3
Durata 45 min
Lingua originale inglese



Lee Majors: Steve Austin
Richard Anderson: Oscar Goldman, membro dell'OSI
Alan Oppenheimer: Dott. Rudy Wells (stagione 2)
Martin E. Brooks: Dott. Rudy Wells (stagioni 3-5)
Lindsay Wagner: Jaime Sommers (la donna bionica)



Un astronauta della NASA, il colonnello Steve Austin, a causa di un incidente durante una missione sperimentale, perde le gambe, il braccio destro e l'occhio sinistro. Su di lui viene quindi effettuata una ricostruzione bionica all'avanguardia, che sostituisce gli organi danneggiati con arti bionici. La serie prende il titolo dal costo dell'intervento, appunto di sei milioni di dollari (equivalenti a 35 milioni nel 2019).

Grazie agli organi bionici, Steve Austin acquisisce delle capacità eccezionali: le gambe gli consentono di correre a velocità altissime, il braccio è dotato di una forza fuori dal comune, e l'occhio permette una visione ravvicinata di oggetti molto lontani.

Steve Austin, dopo l'intervento, lavorerà come agente segreto per l'OSI (Office of Scientific Intelligence), che ha richiesto e finanziato il progetto



After a severely injured test pilot is rebuilt with nuclear-powered bionic limbs and implants, he serves as an intelligence agent.












General
Unique ID                                : 30253508269606852292592552364560257582 (0x16C29D1EB6FB7C028B5B7ACC30FE922E)
Complete name                            : 6 Million Dollar Man-Year1-ep.1 part 1-Dalla luna al deserto-The moon and the desert.mkv
Format                                   : Matroska
Format version                           : Version 4
File size                                : 781 MiB
Duration                                 : 45 min 46 s
Overall bit rate                         : 2 384 kb/s
Encoded date                             : UTC 2020-11-20 16:51:35
Writing application                      : HandBrake 1.3.3 2020061300
Writing library                          : Lavf58.29.100
ErrorDetectionType                       : Per level 1

Video
ID                                       : 1
Format                                   : AVC
Format/Info                              : Advanced Video Codec
Format profile                           : [email protected]
Format settings                          : CABAC / 4 Ref Frames
Format settings, CABAC                   : Yes
Format settings, Reference frames        : 4 frames
Codec ID                                 : V_MPEG4/ISO/AVC
Duration                                 : 45 min 45 s
Bit rate                                 : 2 000 kb/s
Width                                    : 720 pixels
Height                                   : 540 pixels
Display aspect ratio                     : 4:3
Frame rate mode                          : Constant
Frame rate                               : 25.000 FPS
Color space                              : YUV
Chroma subsampling                       : 4:2:0
Bit depth                                : 8 bits
Scan type                                : Progressive
Bits/(Pixel*Frame)                       : 0.206
Stream size                              : 639 MiB (82%)
Writing library                          : x264 core 157 r2935 545de2f
Encoding settings                        : cabac=1 / ref=2 / deblock=1:0:0 / analyse=0x1:0x111 / me=hex / subme=6 / psy=1 / psy_rd=1.00:0.00 / mixed_ref=1 / me_range=16 / chroma_me=1 / trellis=1 / 8x8dct=0 / cqm=0 / deadzone=21,11 / fast_pskip=1 / chroma_qp_offset=-2 / threads=17 / lookahead_threads=2 / sliced_threads=0 / nr=0 / decimate=1 / interlaced=0 / bluray_compat=0 / constrained_intra=0 / bframes=3 / b_pyramid=2 / b_adapt=1 / b_bias=0 / direct=1 / weightb=1 / open_gop=0 / weightp=1 / keyint=250 / keyint_min=25 / scenecut=40 / intra_refresh=0 / rc_lookahead=30 / rc=abr / mbtree=1 / bitrate=2000 / ratetol=1.0 / qcomp=0.60 / qpmin=0 / qpmax=69 / qpstep=4 / vbv_maxrate=20000 / vbv_bufsize=25000 / nal_hrd=none / filler=0 / ip_ratio=1.40 / aq=1:1.00
Default                                  : Yes
Forced                                   : No
Color range                              : Limited
Color primaries                          : BT.601 PAL
Transfer characteristics                 : BT.709
Matrix coefficients                      : BT.601

Audio #1
ID                                       : 2
Format                                   : AC-3
Format/Info                              : Audio Coding 3
Commercial name                          : Dolby Digital
Codec ID                                 : A_AC3
Duration                                 : 45 min 46 s
Bit rate mode                            : Constant
Bit rate                                 : 192 kb/s
Channel(s)                               : 2 channels
Channel layout                           : L R
Sampling rate                            : 48.0 kHz
Frame rate                               : 31.250 FPS (1536 SPF)
Compression mode                         : Lossy
Stream size                              : 62.9 MiB (8%)
Title                                    : Stereo
Language                                 : Italian
Service kind                             : Complete Main
Default                                  : Yes
Forced                                   : No

Audio #2
ID                                       : 3
Format                                   : AC-3
Format/Info                              : Audio Coding 3
Commercial name                          : Dolby Digital
Codec ID                                 : A_AC3
Duration                                 : 45 min 46 s
Bit rate mode                            : Constant
Bit rate                                 : 192 kb/s
Channel(s)                               : 2 channels
Channel layout                           : L R
Sampling rate                            : 48.0 kHz
Frame rate                               : 31.250 FPS (1536 SPF)
Compression mode                         : Lossy
Stream size                              : 62.9 MiB (8%)
Title                                    : Stereo
Language                                 : English
Service kind                             : Complete Main
Default                                  : No
Forced                                   : No

Menu
00:00:00.080                             : :Chapter 1
00:01:24.440                             : :Chapter 2
00:11:18.920                             : :Chapter 3
00:21:54.320                             : :Chapter 4
00:31:14.000                             : :Chapter 5
00:42:27.320                             : :Chapter 6




YouTube Video:
Category:TV
Language:Italian  Italian
Total Size:15.17 GB
Info Hash:54C6A2E1BFF788F0CA64190D0F0A455EB9D81D14
Added By:ArMor1 Verified Uploader
Date Added:2020-11-22 03:03:58
Torrent Status:Torrent Verified


Ratings:Not Yet Rated (Log in to rate it)


Tracker:
udp://tracker.coppersurfer.tk:6969/announce

This Torrent also has backup trackers
URLSeedersLeechersCompleted
udp://tracker.coppersurfer.tk:6969/announce000
udp://tracker.leechers-paradise.org:6969/announce000
udp://9.rarbg.to:2710/announce000
udp://exodus.desync.com:6969/announce000
udp://tracker.uw0.xyz:6969/announce000
udp://open.stealth.si:80/announce000
udp://tracker.tiny-vps.com:6969/announce000
udp://open.demonii.si:1337/announce000
udp://tracker.cyberia.is:6969/announce000
udp://tracker.kamigami.org:2710/announce000
udp://opentor.org:2710/announce[/fo000
udp://opentracker.i2p.rocks:6969/announce000
udp://tracker.zerobytes.xyz:1337/announce000
udp://aaa.army:8866/announce000
udp://tracker2.dler.org:80/announce000


File List: 





Comments
No comments still posted