Download Motichoor Chaknachoor (2019) Hindi 720p Proper WEB-HDRip [1GB] x264 AAC EngSubs Bongrocker torrent - GloDLS
Torrent Details For "Motichoor Chaknachoor (2019) Hindi 720p Proper WEB-HDRip [1GB] x264 AAC EngSubs Bongr..."

Motichoor Chaknachoor (2019) Hindi 720p Proper WEB-HDRip [1GB] x264 AAC EngSubs Bongr...

To download this torrent, you need a BitTorrent client: Vuze or BTGuard
Download this torrent
Download using Magnet Link

Health:
Seeds: 2
Leechers: 43
Completed:
Last Checked: 19-01-2020 19:51:54

Uploader Reputation points : 314
External: Torrent






Write a Review for the Uploader:   0   Say Thanks with one good review:
Share on Facebook


Details
Name:Motichoor Chaknachoor (2019) Hindi 720p Proper WEB-HDRip [1GB] x264 AAC EngSubs Bongr...
Description:


Movie name :

Motichoor Chaknachoor (2019) Hindi 720p Proper WEB-HDRip [1.3GB] x264 AAC EngSubs

Quote:

Storyline : A hilarious story of a 36-year-old jobless man Pushpender, trying to find a wife and Anita who's also looking for a husband. But there's a catch - Anita wants to settle abroad after marriage.

Release date : 15 November 2019 (India)

File size : 950 MB

Encoded by?Bongrockers?


SPECIAL THANKS TO:Team HDWebMovies & Team DRSD & Team SHADOW & Team Jaffa & Silver RG

SPECIAL THANKS TO:Y2K & CLouD9 & Vagabond & RedLady & Maffin & trueHD & starshade












General
Unique ID                                : 152333388525568384637211805607461804203 (0x729A57EC485A0382BCABE2995E0658AB)
Complete name                            : Motichoor Chaknachoor 2019 Hindi 720p HD.mkv
Format                                   : Matroska
Format version                           : Version 4
File size                                : 1.34 GiB
Duration                                 : 2 h 12 min
Overall bit rate                         : 1 457 kb/s
Movie name                               :
Encoded date                             : UTC 2020-01-19 19:11:19
Writing application                      : mkvmerge v31.0.0 ('Dolores In A Shoestand') 64-bit
Writing library                          : libebml v1.3.6 + libmatroska v1.4.9

Video
ID                                       : 1
Format                                   : AVC
Format/Info                              : Advanced Video Codec
Format profile                           : [email protected]
Format settings                          : CABAC / 4 Ref Frames
Format settings, CABAC                   : Yes
Format settings, Reference frames        : 4 frames
Codec ID                                 : V_MPEG4/ISO/AVC
Duration                                 : 2 h 12 min
Bit rate                                 : 1 334 kb/s
Width                                    : 1 274 pixels
Height                                   : 720 pixels
Display aspect ratio                     : 16:9
Frame rate mode                          : Variable
Frame rate                               : 24.000 FPS
Color space                              : YUV
Chroma subsampling                       : 4:2:0
Bit depth                                : 8 bits
Scan type                                : Progressive
Bits/(Pixel*Frame)                       : 0.061
Stream size                              : 1.22 GiB (91%)
Title                                    :
Writing library                          : x264 core 157
Encoding settings                        : cabac=1 / ref=1 / deblock=1:0:0 / analyse=0x3:0x3 / me=dia / subme=1 / psy=1 / psy_rd=1.00:0.00 / mixed_ref=0 / me_range=16 / chroma_me=1 / trellis=0 / 8x8dct=1 / cqm=0 / deadzone=21,11 / fast_pskip=1 / chroma_qp_offset=0 / threads=22 / lookahead_threads=3 / sliced_threads=0 / nr=0 / decimate=1 / interlaced=0 / bluray_compat=0 / constrained_intra=0 / bframes=3 / b_pyramid=2 / b_adapt=1 / b_bias=0 / direct=1 / weightb=1 / open_gop=0 / weightp=1 / keyint=250 / keyint_min=25 / scenecut=40 / intra_refresh=0 / rc=abr / mbtree=0 / bitrate=1334 / ratetol=1.0 / qcomp=0.60 / qpmin=0 / qpmax=69 / qpstep=4 / ip_ratio=1.40 / pb_ratio=1.30 / aq=1:1.00
Default                                  : Yes
Forced                                   : No

Audio
ID                                       : 2
Format                                   : AAC LC
Format/Info                              : Advanced Audio Codec Low Complexity
Codec ID                                 : A_AAC-2
Duration                                 : 2 h 12 min
Bit rate                                 : 128 kb/s
Channel(s)                               : 2 channels
Channel layout                           : L R
Sampling rate                            : 44.1 kHz
Frame rate                               : 43.066 FPS (1024 SPF)
Compression mode                         : Lossy
Stream size                              : 121 MiB (9%)
Title                                    :
Language                                 : Hindi
Default                                  : Yes
Forced                                   : No

Text
ID                                       : 3
Format                                   : ASS
Codec ID                                 : S_TEXT/ASS
Codec ID/Info                            : Advanced Sub Station Alpha
Duration                                 : 2 h 6 min
Bit rate                                 : 105 b/s
Count of elements                        : 1879
Compression mode                         : Lossless
Stream size                              : 97.6 KiB (0%)
Title                                    :
Language                                 : English
Default                                  : Yes
Forced                                   : No


YouTube Video:
Category:Movies
Language:Hindi  Hindi
Total Size:1.34 GB
Info Hash:37207786A9DF4F65C4802315275EA4AF917813A7
Added By:trueHD
Date Added:2020-01-20 03:51:53
Torrent Status:Torrent Verified by Prom3th3uS Super Administrator on 20th January, 2020


Ratings:Not Yet Rated (Log in to rate it)


Tracker:
udp://tracker.coppersurfer.tk:6969/announce

This Torrent also has backup trackers
URLSeedersLeechersCompleted
udp://tracker.coppersurfer.tk:6969/announce000
udp://tracker.opentrackr.org:1337/announce000
udp://tracker.cyberia.is:6969/announce000
udp://tracker.leechers-paradise.org:6969/announce000
udp://tracker.tiny-vps.com:6969/announce000
udp://9.rarbg.com:2710/announce000
udp://p4p.arenabg.com:1337/announce000
udp://tracker.pirateparty.gr:6969/announce000


File List: 





Comments
No comments still posted