Download Nick Sanders Trio - Playtime 2050 (2019) [24-96 Hi-Res] torrent - GloDLS
Torrent Details For "Nick Sanders Trio - Playtime 2050 (2019) [24-96 Hi-Res]"

Nick Sanders Trio - Playtime 2050 (2019) [24-96 Hi-Res]

To download this torrent, you need a BitTorrent client: Vuze or BTGuard
Download this torrent
Download using Magnet Link

Health:
Seeds: 18
Leechers: 55
Completed: 473 
Last Checked: 10-09-2019 14:07:58

Uploader Reputation points : 618
External: Torrent






Write a Review for the Uploader:   5   Say Thanks with one good review:
Share on Facebook


Details
Name:Nick Sanders Trio - Playtime 2050 (2019) [24-96 Hi-Res]
Description:
?

Quality-Lossless
Release-2019
Duration-00:44:12
File Size-981.6 MB
Genre-Jazz
Cover Size-1400px

?----------------------------------------------------------------------------------------------
Analyzed: Playtime 2050 /  Artist: Nick Sanders
----------------------------------------------------------------------------------------------
DR Peak RMS Duration Title [codec]
----------------------------------------------------------------------------------------------
DR10 -0.25 dB -14.70 dB 4:32 01 - Live Normal [flac]
DR9 -0.00 dB -11.30 dB 2:37 02 - Manic Maniac [flac]
DR10 -0.29 dB -11.71 dB 2:18 03 - Playtime 2050 [flac]
DR11 -0.31 dB -14.80 dB 2:58 04 - Prepared for the Blues [flac]
DR12 -0.33 dB -15.15 dB 3:14 05 - Still Considering [flac]
DR9 -0.11 dB -13.20 dB 4:12 06 - The Number 3 [flac]
DR12 -0.33 dB -17.91 dB 1:40 07 - Interludefor S.L.B. [flac]
DR9 -0.03 dB -12.43 dB 5:20 08 - Endless [flac]
DR12 -0.31 dB -16.07 dB 3:16 09 - It's Like This [flac]
DR9 -0.25 dB -13.46 dB 3:25 10 - Hungry Ghost [flac]
DR11 -0.28 dB -16.55 dB 3:52 11 - RPD [flac]
DR9 -0.22 dB -14.52 dB 3:24 12 - Prepared for the Accident [flac]
DR14 -0.33 dB -20.03 dB 3:16 13 - #2 Longfellow Park [flac]
----------------------------------------------------------------------------------------------
Number of files:    13
Official DR value:  DR11

Sampling rate: 96000 Hz
Average bitrate: 2947kbs
Bits per sample: 24 bit
YouTube Video:
Category:FLAC
Language:English  English
Total Size:936.11 MB
Info Hash:00DC2D5C2A172D260A48CB0AE0BB9F853B31AB43
Added By:was95was Verified UploaderMusic Lover
Date Added:2019-08-14 23:39:54
Torrent Status:Torrent Verified


Ratings:Not Yet Rated (Log in to rate it)


Tracker:
udp://tracker.piratepublic.com:1337/announce

This Torrent also has backup trackers
URLSeedersLeechersCompleted
udp://tracker.piratepublic.com:1337/announce000
udp://tracker.pirateparty.gr:6969/announce2674
udp://tracker.coppersurfer.tk:6969/announce2674
udp://tracker.leechers-paradise.org:6969/announce267
udp://9.rarbg.com:2710/announce141
http://p4p.arenabg.com:1337/announce000
http://explodie.org:6969/announce1345
udp://tracker.opentrackr.org:1337/announce1663
udp://exodus.desync.com:6969/announce2552
udp://tracker.leechers-paradise.org:6969/announce267
udp://tracker.zer0day.to:1337/announce000
udp://open.demonii.si:1337/announce2554
udp://exodus.desync.com:6969/announce2552
udp://tracker.iamhansen.xyz:2000/announce1344


File List: 





Comments
No comments still posted