Download Nine Years Of Techno - Selected By Agent Orange DJ (2019)M4A-was95 torrent - GloDLS
Torrent Details For "Nine Years Of Techno - Selected By Agent Orange DJ (2019)M4A-was95"

Nine Years Of Techno - Selected By Agent Orange DJ (2019)M4A-was95

To download this torrent, you need a BitTorrent client: Vuze or BTGuard
Download this torrent
Download using Magnet Link

Health:
Seeds: 0
Leechers: 0
Completed:
Last Checked: 21-08-2019 16:14:18

Uploader Reputation points : 618
External: Torrent






Write a Review for the Uploader:   5   Say Thanks with one good review:
Share on Facebook


Details
Name:Nine Years Of Techno - Selected By Agent Orange DJ (2019)M4A-was95
Description:


Quality-M4A
Release-2019
Duration-02:26:11
File Size-274.1 MB
Genre-Techno
Cover Size-678px

?----------------------------------------------------------------------------------------------
Analyzed: Nine Years Of Techno - Selected By Agent Orange DJ /  Artist: Various Artists
----------------------------------------------------------------------------------------------
DR Peak RMS Duration Title [codec]
----------------------------------------------------------------------------------------------
DR5 -0.00 dB -5.56 dB 7:26 01 - Twitched (Submerge Remix) [None]
DR4 -0.00 dB -4.70 dB 7:03 02 - Organ Pad [None]
DR6 -0.00 dB -7.13 dB 6:42 03 - Dragonfly [None]
DR5 -0.00 dB -6.03 dB 7:19 04 - Malfunction Manipulation (Funk D'Void Remix) [None]
DR5 -0.00 dB -6.09 dB 6:30 05 - Malfunction Manipulation (Agent Orange Remix) [None]
DR5 -0.00 dB -6.01 dB 5:58 06 - Bean V2 (Remastered Original Mix) [None]
DR6 -0.00 dB -6.69 dB 5:08 07 - Koriander (Patrik Skoog Remix) [None]
DR4 -0.00 dB -6.15 dB 8:00 08 - The Children Of The Python (Johannes Heil's 'Tiger Python' Remix) [None]
DR5 -0.00 dB -5.99 dB 8:15 09 - Serenade [None]
DR6 -0.00 dB -6.50 dB 7:37 10 - Gomme (Elemental X Remix) [None]
DR4 -0.00 dB -4.57 dB 7:04 11 - Forever Fusion (D.A.V.E The Drummer Remix) [None]
DR6 -0.00 dB -6.99 dB 7:16 12 - Crank (Ben Long Remix) [None]
DR5 -0.00 dB -7.01 dB 7:12 13 - Anthrax [None]
DR6 -0.00 dB -6.02 dB 6:17 14 - Fancy (Technolatino Swing) [None]
DR6 -0.00 dB -7.13 dB 6:36 15 - Mirage (Matt Mus Remix) [None]
DR4 -0.00 dB -5.07 dB 6:21 16 - Racer Bulldog (Mintech Remix) [None]
DR6 -0.00 dB -6.56 dB 6:11 17 - Aliens Ate My Cat (Mattias Fridell Remix) [None]
DR4 -0.00 dB -6.01 dB 6:12 18 - Posers [None]
DR6 -0.03 dB -7.40 dB 7:03 19 - Splash (Tom Hades Remix) [None]
DR7 -0.00 dB -8.62 dB 7:46 20 - Hyperspace (Stanny Franssen's 'Late Night' Remix) [None]
DR6 -0.00 dB -8.41 dB 8:08 21 - Time And Prosperity (Loco & Jam Remix) [None]
----------------------------------------------------------------------------------------------
Number of files:    21
Official DR value:  DR5

Sampling rate: 44100 Hz
Average bitrate: 323kbs
Bits per sample: 16 bit
YouTube Video:
Category:Music
Language:Aucune/N/D
Total Size:339.53 MB
Info Hash:073713197C1F964769B8ACAB7D1891A339ACB556
Added By:was95was Verified UploaderMusic Lover
Date Added:2019-08-21 23:14:15
Torrent Status:Torrent Verified


Ratings:Not Yet Rated (Log in to rate it)


Tracker:
udp://tracker.piratepublic.com:1337/announce

This Torrent also has backup trackers
URLSeedersLeechersCompleted
udp://tracker.piratepublic.com:1337/announce000
udp://tracker.pirateparty.gr:6969/announce000
udp://tracker.coppersurfer.tk:6969/announce000
udp://tracker.leechers-paradise.org:6969/announce000
udp://9.rarbg.com:2710/announce000
http://p4p.arenabg.com:1337/announce000
http://explodie.org:6969/announce000
udp://tracker.opentrackr.org:1337/announce000
udp://exodus.desync.com:6969/announce000
udp://tracker.leechers-paradise.org:6969/announce000
udp://tracker.zer0day.to:1337/announce000
udp://open.demonii.si:1337/announce000
udp://exodus.desync.com:6969/announce000
udp://tracker.iamhansen.xyz:2000/announce000


File List: 





Comments
No comments still posted