Login
Username:
Password:
Remember Me:
[Signup]
[Recover Account]
Friends
BTScene
Friendly site

Free Courses Online
Friendly site

Anime RG
Friendly site

KaranPC
Friendly site

P2PDL.com
Friendly site

Free Tutorials & Courses
Friendly site
Torrent Details For "Oceans 8 2018 720p HD-TS x264 AAC [MW]"

Oceans 8 2018 720p HD-TS x264 AAC [MW]

To download this torrent, you need a BitTorrent client: Vuze or BTGuard
Download this torrent
Download using Magnet Link

Direct Download - no client needed

Download Faster - High Speed Download

Health:
Seeds: 250
Leechers: 417
Completed: 329 
Last Checked: 13-06-2018 16:10:37

Uploader Reputation points : 3840
External: Torrent




Write a Review for the Uploader:   15   Say Thanks with one good review:
Share on Facebook


Details
Name:Oceans 8 2018 720p HD-TS x264 AAC [MW]
Description:




General
Format                                   : Matroska
Format version                           : Version 4 / Version 2
File size                                : 986 MiB
Duration                                 : 1 h 43 min
Overall bit rate                         : 1 333 kb/s

Video
ID                                       : 1
Format                                   : AVC
Format/Info                              : Advanced Video Codec
Format profile                           : [email protected]
Format settings                          : CABAC / 4 Ref Frames
Format settings, CABAC                   : Yes
Format settings, RefFrames               : 4 frames
Codec ID                                 : V_MPEG4/ISO/AVC
Duration                                 : 1 h 43 min
Bit rate                                 : 1 200 kb/s
Width                                    : 1 280 pixels
Height                                   : 536 pixels
Display aspect ratio                     : 2.40:1
Frame rate mode                          : Constant
Frame rate                               : 30.000 FPS
Color space                              : YUV
Chroma subsampling                       : 4:2:0
Bit depth                                : 8 bits
Scan type                                : Progressive
Bits/(Pixel*Frame)                       : 0.058
Stream size                              : 889 MiB (90%)
Writing library                          : x264 core 155 r2901 7d0ff22
Default                                  : Yes
Forced                                   : No

Audio
ID                                       : 2
Format                                   : AAC
Format/Info                              : Advanced Audio Codec
Format profile                           : LC
Codec ID                                 : A_AAC-2
Duration                                 : 1 h 43 min
Bit rate                                 : 129 kb/s
Channel(s)                               : 2 channels
Channel positions                        : Front: L R
Sampling rate                            : 48.0 kHz
Frame rate                               : 46.875 FPS (1024 SPF)
Compression mode                         : Lossy
Stream size                              : 95.2 MiB (10%)
Language                                 : English
Default                                  : Yes
Forced                                   : No







YouTube Video:
Category:Movies
Language:English  English
Total Size:985.67 MB
Info Hash:F7CCA3BBBA7DE00B8F8D0AA24520937E3FC9BE79
Added By:MovieFreak Verified UploaderMovie Pirate
Date Added:13-06-2018 14:51:11
Torrent Status:Torrent Verified


Ratings:Not Yet Rated (Log in to rate it)


Tracker:
udp://tracker.coppersurfer.tk:6969/announce

This Torrent also has backup trackers
URLSeedersLeechersCompleted
udp://tracker.coppersurfer.tk:6969/announce274830
udp://tracker.pirateparty.gr:6969/announce274830
udp://tracker.coppersurfer.tk:6969/announce274830
udp://tracker.leechers-paradise.org:6969/announce244434
udp://eddie4.nl:6969/announce244434
udp://tracker.tiny-vps.com:6969/announce121413
udp://9.rarbg.me:2720/announce182635
udp://9.rarbg.to:2740/announce182635
udp://public.popcorn-tracker.org:6969/announce101712
udp://open.stealth.si:80/announce111414
udp://tracker.vanitycore.co:6969/announce111411
udp://tracker.opentrackr.org:1337/announce173017
udp://bt.firebit.co.uk:6969/announce244434
udp://shadowshq.yi.org:6969/announce000


File List: 





Comments
No comments still posted