Login
Username:
Password:
Remember Me:
[Signup]
[Recover Account]
Friends
BTScene
Friendly site

Free Courses Online
Friendly site

Anime RG
Friendly site

KaranPC
Friendly site

P2PDL.com
Friendly site

Free Tutorials & Courses
Friendly site
Torrent Details For "Prometheus 2012 Extended HD 720p BDRip x264-MIXED mp4"

Prometheus 2012 Extended HD 720p BDRip x264-MIXED mp4

To download this torrent, you need a BitTorrent client: Vuze or BTGuard
Download this torrent
Download using Magnet Link

Direct Download - no client needed

Download Faster - High Speed Download

Health:
Seeds: 0
Leechers: 0
Completed:
Last Checked: 27-03-2018 07:23:00

Uploader Reputation points : 117
External: Torrent



BTGuard - BitTorrent Anonymously


Write a Review for the Uploader:   0   Say Thanks with one good review:
Share on Facebook


Details
Name:Prometheus 2012 Extended HD 720p BDRip x264-MIXED mp4
Description:
Prometheus (2012) (original title)
16+ | 2h 4min | Adventure, Mystery, Sci-Fi

The official version of the film was shorter by 32 minutes 16 seconds. All possible scenes are replaced by alternative scenes, all cut out are inserted.
http://www.imdb.com/title/tt1446714/










General
Complete name               : Prometheus.2012.Extended.HD.720p.BDRip.x264-MIXED.mp4
Format                      : MPEG-4
Format profile              : Base Media
Codec ID                    : isom (isom/iso2/avc1/mp41)
File size                   : 1.80 GiB
Duration                    : 2 h 35 min
Overall bit rate            : 1 661 kb/s
Writing application         : Lavf57.41.100

Video
ID                          : 1
Format                      : AVC
Format/Info                 : Advanced Video Codec
Format profile              : [email protected]
Format settings             : CABAC / 4 Ref Frames
Format settings, CABAC      : Yes
Format settings, ReFrames   : 4 frames
Codec ID                    : avc1
Codec ID/Info               : Advanced Video Coding
Duration                    : 2 h 35 min
Bit rate                    : 1 536 kb/s
Width                       : 1 280 pixels
Height                      : 720 pixels
Display aspect ratio        : 2.25:1
Frame rate mode             : Constant
Frame rate                  : 23.976 (23976/1000) FPS
Color space                 : YUV
Chroma subsampling          : 4:2:0
Bit depth                   : 8 bits
Scan type                   : Progressive
Bits/(Pixel*Frame)          : 0.070
Stream size                 : 1.65 GiB (92%)
Title                       : BDRip and Montage by Ash61
Writing library             : x264 core 148
Encoding settings           : cabac=1 / ref=3 / deblock=1:0:0 / analyse=0x3:0x113 / me=hex / subme=7 / psy=1 / psy_rd=1.00:0.00 / mixed_ref=1 / me_range=16 / chroma_me=1 / trellis=1 / 8x8dct=1 / cqm=0 / deadzone=21,11 / fast_pskip=1 / chroma_qp_offset=-2 / threads=6 / lookahead_threads=1 / sliced_threads=0 / nr=0 / decimate=1 / interlaced=0 / bluray_compat=0 / constrained_intra=0 / bframes=3 / b_pyramid=2 / b_adapt=1 / b_bias=0 / direct=1 / weightb=1 / open_gop=0 / weightp=2 / keyint=250 / keyint_min=23 / scenecut=40 / intra_refresh=0 / rc_lookahead=40 / rc=abr / mbtree=1 / bitrate=1536 / ratetol=1.0 / qcomp=0.60 / qpmin=0 / qpmax=69 / qpstep=4 / ip_ratio=1.40 / aq=1:1.00
Language                    : English
Menus                       : 3

Audio
ID                          : 2
Format                      : AAC
Format/Info                 : Advanced Audio Codec
Format profile              : LC
Codec ID                    : mp4a-40-2
Duration                    : 2 h 35 min
Duration_LastFrame          : -13 ms
Bit rate mode               : Constant
Bit rate                    : 130 kb/s
Channel(s)                  : 2 channels
Channel positions           : Front: L R
Sampling rate               : 44.1 kHz
Frame rate                  : 43.066 FPS (1024 SPF)
Compression mode            : Lossy
Stream size                 : 144 MiB (8%)
Title                       : Original (5.1ch) + Inserts (2ch) (Montage by Ash61)
Language                    : English
Default                     : Yes
Alternate group             : 1
Menus                       : 3

Menu #1
ID                          : 3
Codec ID                    : text
Duration                    : 2 h 35 min
Language                    : English
Menu For                    : 1,2
00: 00: 00:: 1.
00: 03: 05.230: 2. Arrival of Engineers (alternative scene)
00: 03: 33.006: 3.
00: 05: 22.742: 4. TED Conference, 2023 (scene added)
00: 12: 15.720: 5.
00: 14: 39.170: 6. Message from Shaw Weiland (added scene)
00: 17: 10.980: 7. "Birth" of David (scene added)
00: 19: 34.465: 8. The message of Prometheus Part 1 (the added scene)
00: 20: 12.160: 9. The message of Prometheus Part 2 (the added scene)
00: 22: 50.210: 10. The message of Prometheus, part 3 (the added scene)
00: 23: 21.939: 11.
00: 27: 16.856: 12.
00: 30: 03.540: 14. Christmas (alternative extended scene)
00: 31: 04.079: 15.
00: 36: 25.122: 16.
00: 38: 53.039: 17.
00: 44: 03.330: 18.
00: 48: 18.049: 19.
00: 50: 31.040: 20. Our first extraterrestrial (scene added)
00: 51: 15.104: 21.
00: 54: 57.478: 22.
00: 57: 49.609: 23.
01: 02: 00.765: 24. Skin (the added scene)
01: 02: 44.985: 25.
01: 03: 37.811: 26. We're not alone anymore (scene added)
01: 05: 03.268: 27.
01: 08: 01.852: 28.
01: 09: 36.977: 29.
01: 13: 10.310: 30.
01: 15: 46.145: 31. Strange companions (alternative scene)
01: 18: 50.643: 32.
01: 20: 48.229: 33.
01: 23: 36.606: 34.
01: 24: 51.167: 35. Holloway hangover (scene extension)
01: 25: 10.832: 36.
01: 28: 36.624: 37.
01: 30: 52.248: 38.
01: 35: 11.719: 39. David's task (the added scene)
01: 35: 36.103: 40.
01: 37: 08.134: 41.
01: 40: 42.506: 42. Jenec comforts Vickers (the scene added)
01: 44: 18.581: 43.
01: 48: 41.456: 44. Fieldfield attacks (alternative scene)
01: 50: 48.496: 45.
01: 53: 49.497: 46.
01: 56: 22.872: 47. The king rules (an alternative extended scene)
02: 00: 12.706: 48.
02: 04: 14.182: 49. The engineer says (alternative extended scene)
02: 06: 38.475: 50.
02: 10: 40.380: 51.
02: 15: 59.964: 52. Final battle (alternative extended scene)
02: 21: 03.672: 53.
02: 22: 25.989: 54. Paradise (alternative extended scene)
02: 27: 29.559: 55.
02: 29: 20.758: 56. Final credits
Bit rate mode: VBR

Menu #2
00: 00: 00:: 1.
00: 03: 05.230: 2. Arrival of Engineers (alternative scene)
00: 03: 33.006: 3.
00: 05: 22.742: 4. TED Conference, 2023 (scene added)
00: 12: 15.720: 5.
00: 14: 39.170: 6. Message from Shaw Weiland (added scene)
00: 17: 10.980: 7. "Birth" of David (scene added)
00: 19: 34.465: 8. The message of Prometheus Part 1 (the added scene)
00: 20: 12.160: 9. The message of Prometheus Part 2 (the added scene)
00: 22: 50.210: 10. The message of Prometheus, part 3 (the added scene)
00: 23: 21.939: 11.
00: 27: 16.856: 12.
00: 30: 03.540: 14. Christmas (alternative extended scene)
00: 31: 04.079: 15.
00: 36: 25.122: 16.
00: 38: 53.039: 17.
00: 44: 03.330: 18.
00: 48: 18.049: 19.
00: 50: 31.040: 20. Our first extraterrestrial (scene added)
00: 51: 15.104: 21.
00: 54: 57.478: 22.
00: 57: 49.609: 23.
01: 02: 00.765: 24. Skin (the added scene)
01: 02: 44.985: 25.
01: 03: 37.811: 26. We're not alone anymore (scene added)
01: 05: 03.268: 27.
01: 08: 01.852: 28.
01: 09: 36.977: 29.
01: 13: 10.310: 30.
01: 15: 46.145: 31. Strange companions (alternative scene)
01: 18: 50.643: 32.
01: 20: 48.229: 33.
01: 23: 36.606: 34.
01: 24: 51.167: 35. Holloway hangover (scene extension)
01: 25: 10.832: 36.
01: 28: 36.624: 37.
01: 30: 52.248: 38.
01: 35: 11.719: 39. David's task (the added scene)
01: 35: 36.103: 40.
01: 37: 08.134: 41.
01: 40: 42.506: 42. Jenec comforts Vickers (the scene added)
01: 44: 18.581: 43.
01: 48: 41.456: 44. Fieldfield attacks (alternative scene)
01: 50: 48.496: 45.
01: 53: 49.497: 46.
01: 56: 22.872: 47. The king rules (an alternative extended scene)
02: 00: 12.706: 48.
02: 04: 14.182: 49. The engineer says (alternative extended scene)
02: 06: 38.475: 50.
02: 10: 40.380: 51.
02: 15: 59.964: 52. Final battle (alternative extended scene)
02: 21: 03.672: 53.
02: 22: 25.989: 54. Paradise (alternative extended scene)
02: 27: 29.559: 55.
02: 29: 20.758: 56. Final credits

http://www.imdb.com/title/tt1446714
YouTube Video:   
Category:Movies
Language:English  English
Total Size:1.80 GB
Info Hash:718099F0CF115F88A8BF5B1AA58AB71E9CB275C2
Added By:mixedtv Verified Uploader
Date Added:13-03-2018 22:06:43
Torrent Status:Torrent Verified


Ratings:Not Yet Rated (Log in to rate it)

  


Tracker:
udp://tracker.openbittorrent.com:80/announce

This Torrent also has backup trackers
URLSeedersLeechersCompleted
udp://tracker.openbittorrent.com:80/announce000
udp://tracker.opentrackr.org:1337/announce000
udp://tracker.trackerfix.com:80/announce000
udp://9.rarbg.me:2800/announce000
udp://9.rarbg.to:2770/announce000


File List: 

Error reading .nfo file!



Comments
No comments still posted