Login
Username:
Password:
Remember Me:
[Signup]
[Recover Account]
Friends
BTScene
Friendly site

Free Courses Online
Friendly site

Anime RG
Friendly site

KaranPC
Friendly site

P2PDL.com
Friendly site

Free Tutorials & Courses
Friendly site
Torrent Details For "Pyewacket (2018) 720p HDRip x264 AAC by Full4movies"

Pyewacket (2018) 720p HDRip x264 AAC by Full4movies

To download this torrent, you need a BitTorrent client: Vuze or BTGuard
Download this torrent
Download using Magnet Link

Direct Download - no client needed

Download Faster - High Speed Download

Health:
Seeds: 77
Leechers: 28
Completed: 270 
Last Checked: 13-07-2018 18:05:31

Uploader Reputation points : 1694
External: Torrent



BTGuard - BitTorrent Anonymously


Write a Review for the Uploader:   0   Say Thanks with one good review:
Share on Facebook


Details
Name:Pyewacket (2018) 720p HDRip x264 AAC by Full4movies
Description:


General
Complete name                  : Pyewacket (2018) 720p HDRip x264 AAC by Full4movies.mkv
Format                         : Matroska
Format version                 : Version 4 / Version 2
File size                      : 649 MiB
Duration                       : 1 h 28 min
Overall bit rate               : 1 031 kb/s
Movie name                     : www.Full4movies.co
Encoded date                   : UTC 2018-07-12 08:49:05
Writing application            : mkvmerge v8.1.0 ('Psychedelic Postcard') 32bit
Writing library                : libebml v1.3.1 + libmatroska v1.4.2

Video
ID                             : 1
Format                         : AVC
Format/Info                    : Advanced Video Codec
Format profile                 : [email protected]
Format settings, CABAC         : Yes
Format settings, RefFrames     : 4 frames
Codec ID                       : V_MPEG4/ISO/AVC
Duration                       : 1 h 28 min
Bit rate                       : 920 kb/s
Width                          : 1 280 pixels
Height                         : 536 pixels
Display aspect ratio           : 2.40:1
Frame rate mode                : Constant
Frame rate                     : 23.976 (24000/1001) FPS
Color space                    : YUV
Chroma subsampling             : 4:2:0
Bit depth                      : 8 bits
Scan type                      : Progressive
Bits/(Pixel*Frame)             : 0.056
Stream size                    : 579 MiB (89%)
Writing library                : x264 core 152 r2851 ba24899
Default                        : Yes
Forced                         : No

Audio
ID                             : 2
Format                         : AAC
Format/Info                    : Advanced Audio Codec
Format profile                 : LC
Codec ID                       : A_AAC
Duration                       : 1 h 28 min
Bit rate                       : 109 kb/s
Channel(s)                     : 2 channels
Channel positions              : Front: L R
Sampling rate                  : 48.0 kHz
Frame rate                     : 46.875 FPS (1024 SPF)
Compression mode               : Lossy
Delay relative to video        : -21 ms
Stream size                    : 68.8 MiB (11%)
Language                       : English
Default                        : Yes
Forced                         : No

Screen Shoots
YouTube Video:   
Category:Movies
Language:English  English
Total Size:649.07 MB
Info Hash:0F0F4AF74227D106FDA77A14976278C09AB17D7B
Added By:india4movie Verified Uploader
Date Added:12-07-2018 18:47:38
Torrent Status:Torrent Verified


Ratings:Not Yet Rated (Log in to rate it)


Tracker:
udp://tracker.coppersurfer.tk:6969/announce

This Torrent also has backup trackers
URLSeedersLeechersCompleted
udp://tracker.coppersurfer.tk:6969/announce6133
udp://tracker.opentrackr.org:1337/announce6317
udp://9.rarbg.me:2710/announce6322
udp://tracker.torrent.eu.org:451/announce6213
udp://open.stealth.si:80/announce5215
udp://public.popcorn-tracker.org:6969/announce5212
udp://p4p.arenabg.ch:1337/announce000
udp://tracker.zer0day.to:1337/announce000
udp://tracker.pirateparty.gr:6969/announce6133
udp://tracker.leechers-paradise.org:6969/announce6225
udp://tracker.tiny-vps.com:6969/announce7212
udp://bt.firebit.co.uk:6969/announce6225
udp://inferno.demonoid.pw:3397/announce6316
udp://shadowshq.yi.org:6969/announce6225
udp://9.rarbg.to:2780/announce6322


File List: 





Comments
No comments still posted