Login
Username:
Password:
Remember Me:
[Signup]
[Recover Account]
Friends
BTScene
Friendly site

Ale Torrenty Team
Friendly site

Anime RG
Friendly site

KaranPC
Friendly site

P2PDL.com
Friendly site
Torrent Details For "Queen.of.Katwe.2016.HDRip.XviD.AC3-iFT[PRiME]"

Queen.of.Katwe.2016.HDRip.XviD.AC3-iFT[PRiME]

To download this torrent, you need a BitTorrent client: Vuze or BTGuard
Download this torrent
Download using Magnet Link

Direct Download - no client needed

Download Faster - High Speed Download

Health:
Seeds: 20
Leechers: 4
Completed:
Last Checked: 11-01-2017 19:00:30

Uploader Reputation points : 89446
External: Torrent




Write a Review for the Uploader:   40   Say Thanks with one good review:
Share on Facebook


Details
Name:Queen.of.Katwe.2016.HDRip.XviD.AC3-iFT[PRiME]
Description:

Queen.of.Katwe.2016.HDRip.XviD.AC3-iFT[PRiME]

ImDb: http://www.imdb.com/title/tt4341582



Complete name                            : Queen.of.Katwe.2016.HDRip.XviD.AC3-iFT[PRiME].avi
Format                                   : AVI
Format/Info                              : Audio Video Interleave
Format profile                           : OpenDML
Format settings                          : rec
File size                                : 2.12 GiB
Duration                                 : 2 h 4 min
Overall bit rate                         : 2 434 kb/s
Writing application                      : AVI-Mux GUI 1.17.8.3, Feb 16 201019:42:50

Video
ID                                       : 0
Format                                   : MPEG-4 Visual
Format profile                           : Advanced Simple@L5
Format settings, BVOP                    : 2
Format settings, QPel                    : No
Format settings, GMC                     : No warppoints
Format settings, Matrix                  : Default (H.263)
Muxing mode                              : Packed bitstream
Codec ID                                 : XVID
Codec ID/Hint                            : XviD
Duration                                 : 2 h 4 min
Bit rate                                 : 2 045 kb/s
Width                                    : 720 pixels
Height                                   : 304 pixels
Display aspect ratio                     : 2.35:1
Frame rate                               : 23.976 (23976/1000) FPS
Color space                              : YUV
Chroma subsampling                       : 4:2:0
Bit depth                                : 8 bits
Scan type                                : Progressive
Compression mode                         : Lossy
Bits/(Pixel*Frame)                       : 0.390
Stream size                              : 1.78 GiB (84%)
Writing library                          : XviD 73

Audio
ID                                       : 1
Format                                   : AC-3
Format/Info                              : Audio Coding 3
Mode extension                           : CM (complete main)
Format settings, Endianness              : Big
Codec ID                                 : 2000
Duration                                 : 2 h 4 min
Bit rate mode                            : Constant
Bit rate                                 : 384 kb/s
Channel(s)                               : 6 channels
Channel positions                        : Front: L C R, Side: L R, LFE
Sampling rate                            : 48.0 kHz
Frame rate                               : 31.250 FPS (1536 spf)
Compression mode                         : Lossy
Stream size                              : 341 MiB (16%)
Alignment                                : Aligned on interleaves
Interleave, duration                     : 64  ms (1.54 video frames)
Interleave, preload duration             : 192  ms
Title                                    : Queen.track_2




Click Image To View Full Size


Click To View Screenshot
Click To View Screenshot
Click To View Screenshot

YouTube Video:
Category:Movies
Language:English  English
Total Size:2.13 GB
Info Hash:2C9E589AD88F45764750E60C46076D964AF6F3D1
Added By:Simmoncelli VIPMovie Pirate
Date Added:11-01-2017 18:45:48
Torrent Status:Torrent Verified


Ratings:Not Yet Rated (Log in to rate it)


Tracker:
udp://tracker.ilibr.org:6969/announce

This Torrent also has backup trackers
URLSeedersLeechersCompleted
udp://tracker.ilibr.org:6969/announce000
udp://tracker.coppersurfer.tk:6969220
udp://tracker.ilibr.org:80/announce220
udp://tracker.coppersurfer.tk:6969/announce000
udp://tracker.leechers-paradise.org:6969/announce000
udp://tracker.opentrackr.org:1337/announce200
udp://tracker.zer0day.to:1337/announce100
udp://ipv4.tracker.harry.lu:80/announce100
udp://p4p.arenabg.ch:1337/announce200
udp://p4p.arenabg.com:1337/announce200
udp://9.rarbg.com:2710/announce200
udp://9.rarbg.to:2710/announce200
udp://9.rarbg.me:2710/announce200
udp://explodie.org:6969/announce200
udp://eddie4.nl:6969/announce000


File List: 





Comments
No comments still posted