Download Raat Akeli Hai (2020) Hindi 720p NF WEB-DL ⭐1.1 GB⭐ AAC 5.1 x264 - Shadow (BonsaiHD) torrent - GloDLS
Torrent Details For "Raat Akeli Hai (2020) Hindi 720p NF WEB-DL ⭐1.1 GB⭐ AAC 5.1 x264 - Shadow (Bonsai..."

Raat Akeli Hai (2020) Hindi 720p NF WEB-DL ⭐1.1 GB⭐ AAC 5.1 x264 - Shadow (Bonsai...

To download this torrent, you need a BitTorrent client: Vuze or BTGuard
Download this torrent
Download using Magnet Link

Health:
Seeds: 12,114
Leechers: 5,844
Completed: 65,547 
Last Checked: 01-08-2020 23:00:49

Uploader Reputation points : 972
External: Torrent






Write a Review for the Uploader:   5   Say Thanks with one good review:
Share on Facebook


Details
Name:Raat Akeli Hai (2020) Hindi 720p NF WEB-DL ⭐1.1 GB⭐ AAC 5.1 x264 - Shadow (Bonsai...
Description:
If You Need Best Quality in Low Size. Then This Is For You

Please Don't Stop Your Tourrent after download Complete. For seeding



Movie name :

Raat Akeli Hai (2020) Hindi 720p NF WEB-DL ⭐1.1 GB⭐ AAC 5.1 x264 - Shadow (BonsaiHD)


Quote:

Storyline : The film follows a small town cop who is summoned to investigate the death of a politician which gets complicated by the victim's secretive family and his own conflicted heart.

Release date : 31 July 2020 (India)

File size : 1.1 GB

Encoded by :- ⭐BonsaiHD⭐

Source :-⭐BonsaiHD⭐

[img]httpswww.imgshare.infoimages20190509b9eadb8e79211d053455994e0501d398.png[/img]








[url=httpswww.wikihow.comSeed-Files][img]httpswww.imgshare.infoimages201812068AgDYb.gif[/img][/url]

General
Unique ID                                : 245358198134735652704131484689162235460 (0xB89645248B1DC4FD1B862E3C506AEE44)
Complete name                            : Raat.Akeli.Hai.2020.Hindi.720p.NF.WEB-DL.AAC.5.1.x264-BonsaiHD.mkv
Format                                   : Matroska
Format version                           : Version 4
File size                                : 1.10 GiB
Duration                                 : 2 h 29 min
Overall bit rate mode                    : Variable
Overall bit rate                         : 1 050 kb/s
Movie name                               : Shadow (BonsaiHD.Fun)
Encoded date                             : UTC 2020-07-31 07:18:07
Writing application                      : mkvmerge v48.0.0 ('Fortress Around Your Heart') 64-bit
Writing library                          : libebml v1.4.0 + libmatroska v1.6.0

Video
ID                                       : 1
Format                                   : AVC
Format/Info                              : Advanced Video Codec
Format profile                           : [email protected]
Format settings                          : CABAC / 4 Ref Frames
Format settings, CABAC                   : Yes
Format settings, Reference frames        : 4 frames
Codec ID                                 : V_MPEG4/ISO/AVC
Duration                                 : 2 h 29 min
Bit rate mode                            : Variable
Bit rate                                 : 856 kb/s
Maximum bit rate                         : 14.0 Mb/s
Width                                    : 1 280 pixels
Height                                   : 720 pixels
Display aspect ratio                     : 16:9
Frame rate mode                          : Constant
Frame rate                               : 24.000 FPS
Color space                              : YUV
Chroma subsampling                       : 4:2:0
Bit depth                                : 8 bits
Scan type                                : Progressive
Bits/(Pixel*Frame)                       : 0.039
Stream size                              : 916 MiB (82%)
Title                                    : Shadow (BonsaiHD.Fun)
Writing library                          : x264 core 148 r2721 6d200cf
Encoding settings                        : cabac=1 / ref=4 / deblock=1:0:0 / analyse=0x3:0x111 / me=umh / subme=10 / psy=1 / psy_rd=1.00:0.00 / mixed_ref=1 / me_range=120 / chroma_me=1 / trellis=2 / 8x8dct=1 / cqm=0 / deadzone=21,11 / fast_pskip=1 / chroma_qp_offset=-2 / threads=6 / lookahead_threads=1 / sliced_threads=0 / nr=0 / decimate=1 / interlaced=0 / bluray_compat=0 / stitchable=1 / constrained_intra=0 / bframes=16 / b_pyramid=2 / b_adapt=2 / b_bias=0 / direct=3 / weightb=1 / open_gop=0 / weightp=2 / keyint=240 / keyint_min=121 / scenecut=0 / intra_refresh=0 / rc_lookahead=240 / rc=crf / mbtree=1 / crf=20.0 / qcomp=0.50 / qpmin=6 / qpmax=51 / qpstep=4 / vbv_maxrate=14000 / vbv_bufsize=14000 / crf_max=0.0 / nal_hrd=vbr / filler=0 / ip_ratio=1.40 / aq=1:0.80
Default                                  : Yes
Forced                                   : No

Audio
ID                                       : 4
Format                                   : AAC LC
Format/Info                              : Advanced Audio Codec Low Complexity
Codec ID                                 : A_AAC-2
Duration                                 : 2 h 29 min
Bit rate                                 : 192 kb/s
Channel(s)                               : 6 channels
Channel layout                           : C L R Ls Rs LFE
Sampling rate                            : 48.0 kHz
Frame rate                               : 46.875 FPS (1024 SPF)
Compression mode                         : Lossy
Stream size                              : 205 MiB (18%)
Title                                    : Shadow (BonsaiHD.Fun)
Language                                 : Hindi
Default                                  : Yes
Forced                                   : No

Text #1
ID                                       : 2
Format                                   : UTF-8
Codec ID                                 : S_TEXT/UTF8
Codec ID/Info                            : UTF-8 Plain Text
Duration                                 : 2 h 16 min
Bit rate                                 : 44 b/s
Count of elements                        : 1381
Stream size                              : 44.9 KiB (0%)
Title                                    : Shadow (BonsaiHD.Fun)
Language                                 : English
Default                                  : No
Forced                                   : No

Text #2
ID                                       : 3
Format                                   : UTF-8
Codec ID                                 : S_TEXT/UTF8
Codec ID/Info                            : UTF-8 Plain Text
Duration                                 : 1 h 12 min
Bit rate                                 : 0 b/s
Count of elements                        : 11
Stream size                              : 265 Bytes (0%)
Title                                    : Shadow (BonsaiHD.Fun)
Language                                 : English
Default                                  : Yes
Forced                                   : Yes


YouTube Video:
Category:Movies
Language:Hindi  Hindi
Total Size:1.10 GB
Info Hash:DE814790EA684506B000F7B7AE29170212545E31
Added By:trueHD Verified Uploader
Date Added:2020-07-31 15:36:05
Torrent Status:Torrent Verified


Ratings:Not Yet Rated (Log in to rate it)


Tracker:
udp://tracker.coppersurfer.tk:6969/announce

This Torrent also has backup trackers
URLSeedersLeechersCompleted
udp://tracker.coppersurfer.tk:6969/announce1,20758012,519
udp://tracker.leechers-paradise.org:6969/announce9824648,601
udp://tracker.cyberia.is:6969/announce7863384,973
http://tracker.nyap2p.com:8080/announce2,7441,7758,013
udp://p4p.arenabg.com:1337/announce7072833,404
udp://explodie.org:6969/announce1971380
udp://tracker.opentrackr.org:1337/announce7823494,108
udp://tracker.tiny-vps.com:6969/announce8393194,209
udp://exodus.desync.com:6969/announce6272322,456
udp://tracker.torrent.eu.org:451/announce8203084,142
udp://tracker.moeking.me:6969/announce7962942,262
udp://ipv4.tracker.harry.lu:80/announce1931320
udp://open.stealth.si:80/announce7543194,054
udp://9.rarbg.to:2710/announce6262836,395
udp://opentor.org:2710/announce5430411


File List: 





Comments

[Report] Posted: 31-07-2020 at 16:20:24
ernygirl

avatar

profile message
thanks so much =D