Login
Username:
Password:
Remember Me:
[Signup]
[Recover Account]
Friends
BTScene
Friendly site

Free Courses Online
Friendly site

Anime RG
Friendly site

KaranPC
Friendly site

P2PDL.com
Friendly site

Free Tutorials & Courses
Friendly site
Torrent Details For "Rampage 2018 720p HDCAM x264 AAC [MW]"

Rampage 2018 720p HDCAM x264 AAC [MW]

To download this torrent, you need a BitTorrent client: Vuze or BTGuard
Download this torrent
Download using Magnet Link

Direct Download - no client needed

Download Faster - High Speed Download

Health:
Seeds: 2,056
Leechers: 2,474
Completed: 4,740 
Last Checked: 14-04-2018 08:27:42

Uploader Reputation points : 2884
External: Torrent




Write a Review for the Uploader:   10   Say Thanks with one good review:
Share on Facebook


Details
Name:Rampage 2018 720p HDCAM x264 AAC [MW]
Description:




General
Format                                   : Matroska
Format version                           : Version 4 / Version 2
File size                                : 993 MiB
Duration                                 : 1 h 39 min
Overall bit rate                         : 1 394 kb/s

Video
ID                                       : 1
Format                                   : AVC
Format/Info                              : Advanced Video Codec
Format profile                           : [email protected]
Format settings                          : CABAC / 4 Ref Frames
Format settings, CABAC                   : Yes
Format settings, RefFrames               : 4 frames
Codec ID                                 : V_MPEG4/ISO/AVC
Duration                                 : 1 h 39 min
Bit rate                                 : 1 200 kb/s
Width                                    : 1 280 pixels
Height                                   : 608 pixels
Display aspect ratio                     : 2.105
Frame rate mode                          : Constant
Frame rate                               : 29.970 (30000/1001) FPS
Color space                              : YUV
Chroma subsampling                       : 4:2:0
Bit depth                                : 8 bits
Scan type                                : Progressive
Bits/(Pixel*Frame)                       : 0.051
Stream size                              : 855 MiB (86%)
Writing library                          : x264 core 155 r2893 b00bcaf
Default                                  : Yes
Forced                                   : No

Audio
ID                                       : 2
Format                                   : AAC
Format/Info                              : Advanced Audio Codec
Format profile                           : LC
Codec ID                                 : A_AAC-2
Duration                                 : 1 h 39 min
Bit rate                                 : 192 kb/s
Channel(s)                               : 2 channels
Channel positions                        : Front: L R
Sampling rate                            : 48.0 kHz
Frame rate                               : 46.875 FPS (1024 SPF)
Compression mode                         : Lossy
Stream size                              : 137 MiB (14%)
Language                                 : English
Default                                  : Yes
Forced                                   : No







YouTube Video:
Category:Movies
Language:English  English
Total Size:993.21 MB
Info Hash:DAF2FD5456AB7FCB49BDC155C6F0C2CE78BEE8DA
Added By:MovieFreak Verified UploaderMovie Pirate
Date Added:14-04-2018 00:44:27
Torrent Status:Torrent Verified


Ratings:Not Yet Rated (Log in to rate it)


Tracker:
udp://tracker.pirateparty.gr:6969/announce

This Torrent also has backup trackers
URLSeedersLeechersCompleted
udp://tracker.pirateparty.gr:6969/announce000
udp://tracker.opentrackr.org:1337/announce196243306
udp://tracker.opentrackr.org:80/announce000
udp://tracker.vanitycore.co:6969/announce200237403
udp://public.popcorn-tracker.org:6969/announce210242322
udp://9.rarbg.to:2720/announce203245782
udp://9.rarbg.me:2740/announce203245782
udp://9.rarbg.com:2790/announce203245782
udp://inferno.demonoid.pw:3391/announce155186218
udp://tracker.internetwarriors.net:1337/announce000
udp://ipv4.tracker.harry.lu:80/announce571200
udp://p4p.arenabg.ch:1337/announce000
http://tracker.vanitycore.co:6969/announce200236403
http://public.popcorn-tracker.org:6969/announce210242322
udp://tracker.zer0day.to:1337/announce000
udp://tracker.leechers-paradise.org:6969/announce219233420
udp://coppersurfer.tk:6969/announce000


File List: 





Comments
No comments still posted