Download RED (2021) 1080p Telugu TRUE HDRip [Hindi + Urdu + English Subtitles] (DD 5 1) x264 AC3 By Full4Movies torrent - GloDLS
Torrent Details For "RED (2021) 1080p Telugu TRUE HDRip [Hindi + Urdu + English Subtitles] (DD 5 1) x264 ..."

RED (2021) 1080p Telugu TRUE HDRip [Hindi + Urdu + English Subtitles] (DD 5 1) x264 ...

To download this torrent, you need a BitTorrent client: Vuze or BTGuard
Download this torrent
Download using Magnet Link

Health:
Seeds: 162
Leechers: 104
Completed: 525 
Last Checked: 24-02-2021 08:08:23

Uploader Reputation points : 5125
External: Torrent






Write a Review for the Uploader:   5   Say Thanks with one good review:
Share on Facebook


Details
Name:RED (2021) 1080p Telugu TRUE HDRip [Hindi + Urdu + English Subtitles] (DD 5 1) x264 ...
Description:


Visit Us = https://www.full4movies.biz/



General
Complete name                  : RED (2021) 1080p Telugu TRUE HDRip [Hindi + Urdu + English Subtitles] (DD 5.1) x264 AC3 By Full4Movies.mkv
Format                         : Matroska
Format version                 : Version 4
File size                      : 2.55 GiB
Duration                       : 2 h 23 min
Overall bit rate mode          : Variable
Overall bit rate               : 2 549 kb/s
Encoded date                   : UTC 2021-02-23 07:14:22
Writing application            : mkvmerge v6.8.0
Writing library                : libebml v1.3.0 + libmatroska v1.4.1

Video
ID                             : 1
Format                         : AVC
Format/Info                    : Advanced Video Codec
Format profile                 : [email protected]
Format settings                : CABAC / 4 Ref Frames
Format settings, CABAC         : Yes
Format settings, Reference fra : 4 frames
Codec ID                       : V_MPEG4/ISO/AVC
Duration                       : 2 h 23 min
Bit rate mode                  : Variable
Bit rate                       : 1 858 kb/s
Maximum bit rate               : 20.0 Mb/s
Width                          : 1 920 pixels
Height                         : 1 080 pixels
Display aspect ratio           : 16:9
Frame rate mode                : Constant
Frame rate                     : 24.000 FPS
Color space                    : YUV
Chroma subsampling             : 4:2:0
Bit depth                      : 8 bits
Scan type                      : Progressive
Bits/(Pixel*Frame)             : 0.037
Stream size                    : 1.86 GiB (73%)
Writing library                : x264 core 148 r2722 1b0121b
Language                       : Telugu
Default                        : Yes
Forced                         : No

Audio
ID                             : 2
Format                         : E-AC-3
Format/Info                    : Enhanced AC-3
Commercial name                : Dolby Digital Plus
Codec ID                       : A_EAC3
Duration                       : 2 h 23 min
Bit rate mode                  : Constant
Bit rate                       : 640 kb/s
Channel(s)                     : 6 channels
Channel layout                 : L R C LFE Ls Rs
Sampling rate                  : 48.0 kHz
Frame rate                     : 31.250 FPS (1536 SPF)
Compression mode               : Lossy
Stream size                    : 656 MiB (25%)
Language                       : Telugu
Service kind                   : Complete Main
Default                        : Yes
Forced                         : No

Text #1
ID                             : 3
Format                         : UTF-8
Codec ID                       : S_TEXT/UTF8
Codec ID/Info                  : UTF-8 Plain Text
Language                       : Hindi
Default                        : Yes
Forced                         : No

Text #2
ID                             : 4
Format                         : UTF-8
Codec ID                       : S_TEXT/UTF8
Codec ID/Info                  : UTF-8 Plain Text
Language                       : Urdu
Default                        : No
Forced                         : No

Text #3
ID                             : 5
Format                         : UTF-8
Codec ID                       : S_TEXT/UTF8
Codec ID/Info                  : UTF-8 Plain Text
Language                       : English
Default                        : No
Forced                         : No

Screen Shoots









YouTube Video:
Category:Movies
Language:Telugu
Total Size:2.55 GB
Info Hash:409555540093B26E2274E3FA614C409FA9B67ADD
Added By:india4movie Verified Uploader
Date Added:2021-02-23 16:41:20
Torrent Status:Torrent Verified


Ratings:Not Yet Rated (Log in to rate it)


Tracker:
udp://tracker.opentrackr.org:1337/announce

This Torrent also has backup trackers
URLSeedersLeechersCompleted
udp://tracker.opentrackr.org:1337/announce2923118
udp://tracker.cyberia.is:6969/announce201179
udp://9.rarbg.me:2980/announce000
udp://open.stealth.si:80/announce16747
udp://exodus.desync.com:6969/announce13840
udp://tracker.moeking.me:6969/announce11746
udp://explodie.org:6969/announce640
udp://tracker.openbittorrent.com:80/announce238
udp://inferno.demonoid.is:3391/announce7429
udp://tracker.torrent.eu.org:451/announce141137
udp://ipv4.tracker.harry.lu:80/announce850
udp://tracker.uw0.xyz:6969/announce8433
udp://tracker.coppersurfer.tk:6969/announce000
udp://exodus.desync.com:6969/announce13840
udp://tracker.tiny-vps.com:6969/announce15948


File List: 





Comments
No comments still posted