Login
Username:
Password:
Remember Me:
[Signup]
[Recover Account]
Friends
BTScene
Friendly site

Free Courses Online
Friendly site

Anime RG
Friendly site

KaranPC
Friendly site

P2PDL.com
Friendly site

Free Tutorials & Courses
Friendly site
Torrent Details For "Revenge 2017 1080p BluRay x264 DTS [MW]"

Revenge 2017 1080p BluRay x264 DTS [MW]

To download this torrent, you need a BitTorrent client: Vuze or BTGuard
Download this torrent
Download using Magnet Link

Direct Download - no client needed

Download Faster - High Speed Download

Health:
Seeds: 127
Leechers: 175
Completed: 249 
Last Checked: 10-08-2018 17:49:59

Uploader Reputation points : 3890
External: Torrent




Write a Review for the Uploader:   15   Say Thanks with one good review:
Share on Facebook


Details
Name:Revenge 2017 1080p BluRay x264 DTS [MW]
Description:




General
Format                                   : Matroska
Format version                           : Version 4 / Version 2
File size                                : 2.79 GiB
Duration                                 : 1 h 48 min
Overall bit rate                         : 3 687 kb/s

Video
ID                                       : 1
Format                                   : AVC
Format/Info                              : Advanced Video Codec
Format profile                           : [email protected]
Format settings                          : CABAC / 4 Ref Frames
Format settings, CABAC                   : Yes
Format settings, RefFrames               : 4 frames
Codec ID                                 : V_MPEG4/ISO/AVC
Duration                                 : 1 h 48 min
Bit rate                                 : 3 000 kb/s
Width                                    : 1 920 pixels
Height                                   : 808 pixels
Display aspect ratio                     : 2.40:1
Frame rate mode                          : Constant
Frame rate                               : 23.976 (24000/1001) FPS
Color space                              : YUV
Chroma subsampling                       : 4:2:0
Bit depth                                : 8 bits
Scan type                                : Progressive
Bits/(Pixel*Frame)                       : 0.081
Stream size                              : 2.22 GiB (79%)
Writing library                          : x264 core 155 r2901 7d0ff22
Default                                  : Yes
Forced                                   : No

Audio
ID                                       : 2
Format                                   : DTS
Format/Info                              : Digital Theater Systems
Codec ID                                 : A_DTS
Duration                                 : 1 h 48 min
Bit rate mode                            : Constant
Bit rate                                 : 756 kb/s
Channel(s)                               : 6 channels
Channel positions                        : Front: L C R, Side: L R, LFE
Sampling rate                            : 48.0 kHz
Frame rate                               : 93.750 FPS (512 SPF)
Bit depth                                : 16 bits
Compression mode                         : Lossy
Stream size                              : 587 MiB (20%)
Language                                 : English
Default                                  : Yes
Forced                                   : No

Text #1
ID                                       : 3
Format                                   : UTF-8
Codec ID                                 : S_TEXT/UTF8
Codec ID/Info                            : UTF-8 Plain Text
Duration                                 : 1 h 40 min
Bit rate                                 : 9 b/s
Count of elements                        : 214
Stream size                              : 6.82 KiB (0%)
Language                                 : English
Default                                  : Yes
Forced                                   : No

Text #2
ID                                       : 4
Format                                   : UTF-8
Codec ID                                 : S_TEXT/UTF8
Codec ID/Info                            : UTF-8 Plain Text
Duration                                 : 1 h 43 min
Bit rate                                 : 14 b/s
Count of elements                        : 461
Stream size                              : 10.8 KiB (0%)
Language                                 : English
Default                                  : No
Forced                                   : No

Menu
00:00:00.000                             : en:00:00:00.000
00:09:51.716                             : en:00:09:51.716
00:14:02.967                             : en:00:14:02.967
00:23:57.269                             : en:00:23:57.186
00:37:53.438                             : en:00:37:53.438
00:58:20.539                             : en:00:58:20.539
01:25:54.024                             : en:01:25:53.899
01:45:10.888                             : en:01:45:10.888


https://pichub.site/image/RTF1y
https://pichub.site/image/RTWOb
https://pichub.site/image/RTePV
https://pichub.site/image/RTqfT
https://pichub.site/image/RF4hN
https://pichub.site/image/RFfoD

YouTube Video:
Category:Movies
Language:English  English
Total Size:2.79 GB
Info Hash:95E35014BAD850EC2A4431667AAD3F6BA7CED025
Added By:MovieFreak Verified UploaderMovie Pirate
Date Added:10-08-2018 13:33:55
Torrent Status:Torrent Verified


Ratings:Not Yet Rated (Log in to rate it)


Tracker:
udp://tracker.coppersurfer.tk:6969/announce

This Torrent also has backup trackers
URLSeedersLeechersCompleted
udp://tracker.coppersurfer.tk:6969/announce131724
udp://tracker.pirateparty.gr:6969/announce131724
udp://tracker.coppersurfer.tk:6969/announce131724
udp://tracker.leechers-paradise.org:6969/announce131824
udp://eddie4.nl:6969/announce131824
udp://tracker.tiny-vps.com:6969/announce5610
udp://9.rarbg.me:2800/announce5713
udp://9.rarbg.to:2720/announce5713
udp://public.popcorn-tracker.org:6969/announce487
udp://open.stealth.si:80/announce5710
udp://tracker.vanitycore.co:6969/announce4711
udp://tracker.opentrackr.org:1337/announce81017
udp://bt.firebit.co.uk:6969/announce131824
udp://shadowshq.yi.org:6969/announce131824


File List: 





Comments
No comments still posted