Login
Username:
Password:
Remember Me:
[Signup]
[Recover Account]
Friends
BTScene
Friendly site

Free Courses Online
Friendly site

Anime RG
Friendly site

KaranPC
Friendly site

P2PDL.com
Friendly site

Free Tutorials & Courses
Friendly site
Torrent Details For "Richie (2018) 720p HIndi Dubbed HDRip x264 AAC by Full4movies"

Richie (2018) 720p HIndi Dubbed HDRip x264 AAC by Full4movies

To download this torrent, you need a BitTorrent client: Vuze or BTGuard
Download this torrent
Download using Magnet Link

Direct Download - no client needed

Download Faster - High Speed Download

Health:
Seeds: 87
Leechers: 141
Completed: 67 
Last Checked: 14-06-2018 21:37:52

Uploader Reputation points : 1078
External: Torrent




Write a Review for the Uploader:   0   Say Thanks with one good review:
Share on Facebook


Details
Name:Richie (2018) 720p HIndi Dubbed HDRip x264 AAC by Full4movies
Description:


General
Complete name                  : Richie (2018) 720p HIndi Dubbed HDRip x264 AAC by Full4movies.mkv
Format                         : Matroska
Format version                 : Version 4 / Version 2
File size                      : 855 MiB
Duration                       : 1 h 38 min
Overall bit rate               : 1 216 kb/s
Movie name                     : www.Full4movies.co
Encoded date                   : UTC 2018-06-13 10:21:28
Writing application            : mkvmerge v8.1.0 ('Psychedelic Postcard') 32bit
Writing library                : libebml v1.3.1 + libmatroska v1.4.2

Video
ID                             : 1
Format                         : AVC
Format/Info                    : Advanced Video Codec
Format profile                 : [email protected]
Format settings, CABAC         : Yes
Format settings, RefFrames     : 3 frames
Codec ID                       : V_MPEG4/ISO/AVC
Duration                       : 1 h 38 min
Bit rate                       : 1 089 kb/s
Width                          : 1 280 pixels
Height                         : 720 pixels
Display aspect ratio           : 16:9
Frame rate mode                : Constant
Frame rate                     : 25.000 FPS
Color space                    : YUV
Chroma subsampling             : 4:2:0
Bit depth                      : 8 bits
Scan type                      : Progressive
Bits/(Pixel*Frame)             : 0.047
Stream size                    : 765 MiB (89%)
Default                        : Yes
Forced                         : No
Color range                    : Limited
Color primaries                : BT.709
Transfer characteristics       : BT.709
Matrix coefficients            : BT.709

Audio
ID                             : 2
Format                         : AAC
Format/Info                    : Advanced Audio Codec
Format profile                 : LC
Codec ID                       : A_AAC
Duration                       : 1 h 38 min
Bit rate                       : 126 kb/s
Channel(s)                     : 2 channels
Channel positions              : Front: L R
Sampling rate                  : 44.1 kHz
Frame rate                     : 43.066 FPS (1024 SPF)
Compression mode               : Lossy
Stream size                    : 88.3 MiB (10%)
Language                       : English
Default                        : Yes
Forced                         : No

Screen Shoots
YouTube Video:   
Category:Movies
Language:Hindi  Hindi
Total Size:855.22 MB
Info Hash:91BE1454FE5B724CC0FAAD5F94675B941F1B83AA
Added By:india4movie Verified Uploader
Date Added:14-06-2018 14:39:07
Torrent Status:Torrent Verified


Ratings:Not Yet Rated (Log in to rate it)


Tracker:
udp://tracker.coppersurfer.tk:6969/announce

This Torrent also has backup trackers
URLSeedersLeechersCompleted
udp://tracker.coppersurfer.tk:6969/announce8128
udp://tracker.opentrackr.org:1337/announce5133
udp://9.rarbg.me:2710/announce599
udp://tracker.torrent.eu.org:451/announce593
udp://open.stealth.si:80/announce5113
udp://public.popcorn-tracker.org:6969/announce8121
udp://p4p.arenabg.ch:1337/announce000
udp://tracker.zer0day.to:1337/announce000
udp://tracker.pirateparty.gr:6969/announce8128
udp://tracker.leechers-paradise.org:6969/announce8123
udp://tracker.tiny-vps.com:6969/announce795
udp://bt.firebit.co.uk:6969/announce8123
udp://inferno.demonoid.pw:3397/announce799
udp://shadowshq.yi.org:6969/announce8123
udp://9.rarbg.to:2780/announce599


File List: 





Comments
No comments still posted