Login
Username:
Password:
Remember Me:
[Signup]
[Recover Account]
Friends
BTScene
Friendly site

Ale Torrenty Team
Friendly site

Anime RG
Friendly site

KaranPC
Friendly site

P2PDL.com
Friendly site

Free Tutorials & Courses
Friendly site
Torrent Details For "Rounders 1998 10bit hevc-d3g."

Rounders 1998 10bit hevc-d3g.

To download this torrent, you need a BitTorrent client: Vuze or BTGuard
Download this torrent
Download using Magnet Link

Direct Download - no client needed

Download Faster - High Speed Download

Health:
Seeds: 1
Leechers: 0
Completed:
Last Checked: 13-10-2017 04:24:39

Uploader Reputation points : 118992
External: Torrent




Write a Review for the Uploader:   55   Say Thanks with one good review:
Share on Facebook


Details
Name:Rounders 1998 10bit hevc-d3g.
Description:
Rounders 1998 10bit hevc-d3g.

ImDb: http://www.imdb.com/title/tt0128442



Complete name                            : Rounders 1998 BluRay 10Bit 1080p DD5.1 H265-d3g.mkv
Format                                   : Matroska
Format version                           : Version 2
File size                                : 2.60 GiB
Duration                                 : 2 h 0 min
Overall bit rate                         : 3 079 kb/s
Movie name                               : Rounders 1998 BluRay 10Bit 1080p DD5.1 H265-d3g
Encoded date                             : UTC 2017-10-12 21:41:56
Writing application                      : DVDFab 10.0.6.2
Writing library                          : libebml v1.3.4 + libmatroska v1.4.5

Video
ID                                       : 1
Format                                   : HEVC
Format/Info                              : High Efficiency Video Coding
Format profile                           : Main [email protected]@Main
Codec ID                                 : V_MPEGH/ISO/HEVC
Duration                                 : 2 h 0 min
Bit rate                                 : 2 594 kb/s
Width                                    : 1 920 pixels
Height                                   : 816 pixels
Display aspect ratio                     : 2.35:1
Frame rate mode                          : Constant
Frame rate                               : 23.976 (24000/1001) FPS
Color space                              : YUV
Chroma subsampling                       : 4:2:0
Bit depth                                : 10 bits
Bits/(Pixel*Frame)                       : 0.069
Stream size                              : 2.19 GiB (84%)
Default                                  : Yes
Forced                                   : No
Color range                              : Limited
Color primaries                          : BT.709
Transfer characteristics                 : BT.709
Matrix coefficients                      : BT.709

Audio
ID                                       : 2
Format                                   : AC-3
Format/Info                              : Audio Coding 3
Format settings, Endianness              : Big
Codec ID                                 : A_AC3
Duration                                 : 2 h 0 min
Bit rate mode                            : Constant
Bit rate                                 : 448 kb/s
Channel(s)                               : 6 channels
Channel positions                        : Front: L C R, Side: L R, LFE
Sampling rate                            : 48.0 kHz
Frame rate                               : 31.250 FPS (1536 spf)
Bit depth                                : 16 bits
Compression mode                         : Lossy
Stream size                              : 387 MiB (15%)
Language                                 : English
Service kind                             : Complete Main
Default                                  : Yes
Forced                                   : No

Text #1
ID                                       : 3
Format                                   : VobSub
Codec ID                                 : S_VOBSUB
Codec ID/Info                            : Picture based subtitle format used on DVDs
Duration                                 : 1 h 53 min
Bit rate                                 : 13.8 kb/s
Count of elements                        : 1690
Stream size                              : 11.2 MiB (0%)
Language                                 : English
Default                                  : No
Forced                                   : No

Text #2
ID                                       : 4
Format                                   : VobSub
Codec ID                                 : S_VOBSUB
Codec ID/Info                            : Picture based subtitle format used on DVDs
Duration                                 : 1 h 59 min
Bit rate                                 : 14.5 kb/s
Count of elements                        : 1807
Stream size                              : 12.3 MiB (0%)
Language                                 : English
Default                                  : No
Forced                                   : No

Text #3
ID                                       : 5
Format                                   : VobSub
Codec ID                                 : S_VOBSUB
Codec ID/Info                            : Picture based subtitle format used on DVDs
Duration                                 : 1 h 53 min
Bit rate                                 : 11.5 kb/s
Count of elements                        : 1669
Stream size                              : 9.35 MiB (0%)
Language                                 : Spanish
Default                                  : No
Forced                                   : No

Menu
00:00:00.000                             : en:(01)00:00:00:000
00:10:41.432                             : en:(02)00:10:41:432
00:18:50.170                             : en:(03)00:18:50:170
00:24:15.370                             : en:(04)00:24:15:370
00:31:22.797                             : en:(05)00:31:22:797
00:35:39.428                             : en:(06)00:35:39:428
00:41:56.722                             : en:(07)00:41:56:722
00:46:20.778                             : en:(08)00:46:20:778
00:58:30.924                             : en:(09)00:58:30:924
01:03:10.203                             : en:(10)01:03:10:203
01:10:36.732                             : en:(11)01:10:36:732
01:18:23.782                             : en:(12)01:18:23:782
01:24:53.046                             : en:(13)01:24:53:046
01:35:07.284                             : en:(14)01:35:07:284
01:44:50.951                             : en:(15)01:44:50:951
01:51:51.913                             : en:(16)01:51:51:913
02:00:45.821                             : en:(17)02:00:45:821






Click To View Screenshot

Click To View Screenshot

Click To View Screenshot
YouTube Video:
Category:Movies
Language:English  English
Total Size:2.60 GB
Info Hash:284F3C5B44C2760CE4169B408546C784967D7E25
Added By:Simmoncelli VIPMovie Pirate
Date Added:13-10-2017 04:24:39
Torrent Status:Torrent Verified


Ratings:Not Yet Rated (Log in to rate it)


Tracker:
udp://tracker.coppersurfer.tk:6969/announce

This Torrent also has backup trackers
URLSeedersLeechersCompleted
udp://tracker.coppersurfer.tk:6969/announce000
udp://tracker.pirateparty.gr:6969/announce000
udp://shadowshq.yi.org:6969/announce000
udp://eddie4.nl:6969/announce000
udp://tracker.leechers-paradise.org:6969/announce000
udp://tracker.opentrackr.org:1337/announce000
udp://p4p.arenabg.ch:1337/announce000
udp://p4p.arenabg.com:1337/announce000
udp://9.rarbg.me:2710/announce000
udp://9.rarbg.to:2710/announce000
udp://ipv4.tracker.harry.lu:80/announce000
udp://tracker.grepler.com:6969/announce000
udp://public.popcorn-tracker.org:6969/announce000
udp://tracker.opentrackr.org:1337/announce000
udp://tracker.zer0day.to:1337/announce000


File List: 





Comments
No comments still posted