GloDLS.to - Download Movies, TV, Games and Other Torrents Free RSS 2.0enGloDLS.to - Download Movies, TV, Games and Other Torrents FreeGloDLS.to - Download Movies, TV, Games and Other Torrents Free RSS Feedhttp://glodls.toCopyright GloDLS.to - Download Movies, TV, Games and Other Torrents FreeFri, 20 Oct 2017 08:07:38 +0100 TheLifeErotic.17.10.20.Foxy.Sanie.WC.2.XXX.1080p.MP4-KTR http://glodls.to/torrent.php?id=2886437 http://glodls.to/torrent.php?id=2886437 Fri, 20 Oct 2017 07:07:34 +0100 Adult XXX
{Duration} : 10 min 22 s
{Format} : MPEG-4
{Resolution} : 1920 x 1080 pixels
{Aspect Ratio} : 16:9
{Frame Rate} : 25.000 fps

[b]Thumbnails : -[/b]


[URL=https://www.sizzlingclicks.com/image/aeScL][IMG]https://www.sizzlingclicks.com/images/2017/10/20/aeScL.th.jpg[/IMG][/URL]
[b][URL]https://www.sizzlingclicks.com/image/aeScL[/URL][/b]
[b][URL]https://www.sizzlingclicks.com/image/aeYBr[/URL][/b]
[b][URL]https://www.sizzlingclicks.com/image/ael79[/URL][/b]
[b][URL]https://www.sizzlingclicks.com/image/aekpo[/URL][/b] ]]>
MetArtX.17.10.20.Blue.Angel.Blue.XXX.1080p.MP4-KTR http://glodls.to/torrent.php?id=2886436 http://glodls.to/torrent.php?id=2886436 Fri, 20 Oct 2017 07:06:39 +0100 Adult XXX
{Duration} : 11 min 21 s
{Format} : MPEG-4
{Resolution} : 1920 x 1080 pixels
{Aspect Ratio} : 16:9
{Frame Rate} : 25.000 fps

[b]Thumbnails : -[/b]


[URL=https://www.sizzlingclicks.com/image/aeCX7][IMG]https://www.sizzlingclicks.com/images/2017/10/20/aeCX7.th.jpg[/IMG][/URL]
[b][URL]https://www.sizzlingclicks.com/image/aeCX7[/URL][/b]
[b][URL]https://www.sizzlingclicks.com/image/aecld[/URL][/b]
[b][URL]https://www.sizzlingclicks.com/image/aejwi[/URL][/b]
[b][URL]https://www.sizzlingclicks.com/image/aeMqs[/URL][/b] ]]>
HardX 17 10 20 Angela White And Anikka Albrite T And A Three Way XXX 480p MP4-TK http://glodls.to/torrent.php?id=2886435 http://glodls.to/torrent.php?id=2886435 Fri, 20 Oct 2017 07:06:02 +0100 Adult XXX
[b]Screenshots:[/b]

[url]http://imagerar.com/imgs-59e9a05c1f696.html[/url]

[url]http://imagerar.com/imgs-59e9a05c0ab43.html[/url]

[url]http://imagerar.com/imgs-59e9a05c01573.html[/url]

[url]http://imagerar.com/imgs-59e9a05a9d56f.html[/url]

File Size : 295 MiB
Duration : 35mn 28s
Video : h264, yuv420p, 854x480p, 1024 Kbps
Audio : aac , 2 ch, stereo , 128 Kbps ]]>
PervsOnPatrol 17 10 20 Evelin Stone Photoshoot Turns Into Sex Tape XXX 480p MP4-TK http://glodls.to/torrent.php?id=2886434 http://glodls.to/torrent.php?id=2886434 Fri, 20 Oct 2017 07:04:19 +0100 Adult XXX
[b]Screenshots:[/b]

[url]http://imagerar.com/imgs-59e99ff5e3a02.html[/url]

[url]http://imagerar.com/imgs-59e99ff5ce3b0.html[/url]

[url]http://imagerar.com/imgs-59e99ff5c74fb.html[/url]

[url]http://imagerar.com/imgs-59e99ff403946.html[/url]

File Size : 322 MiB
Duration : 38mn 43s
Video : h264, yuv420p, 854x480p, 1024 Kbps
Audio : aac , 2 ch, stereo , 128 Kbps ]]>
PlumperPass 17 10 20 Veronica Bottoms BBW Pornstar Experience XXX 480p MP4-TK http://glodls.to/torrent.php?id=2886432 http://glodls.to/torrent.php?id=2886432 Fri, 20 Oct 2017 06:59:42 +0100 Adult XXX
[b]Screenshots:[/b]

[url]http://imagerar.com/imgs-59e99ee019e11.html[/url]

[url]http://imagerar.com/imgs-59e99ee007372.html[/url]

[url]http://imagerar.com/imgs-59e99ee0008cb.html[/url]

[url]http://imagerar.com/imgs-59e99ede35072.html[/url]

File Size : 219 MiB
Duration : 26mn 33s
Video : h264, yuv420p, 854x480p, 1024 Kbps
Audio : aac , 2 ch, stereo , 128 Kbps ]]>
Armed.Response.2017.1080p.BluRay.x264-BRMP[EtHD] http://glodls.to/torrent.php?id=2886431 http://glodls.to/torrent.php?id=2886431 Fri, 20 Oct 2017 06:59:23 +0100 Movies EtHD - EtHD - Et High-Definition Movies

-----------------------------------------------------

[url=https://extraimage.net/image/TCMz][img]https://extraimage.net/images/2017/10/20/af32dcb95d300b003ed8c3489fe88af4.jpg[/img][/url]

Armed.Response.2017.1080p.BluRay.x264-BRMP

http://www.imdb.com/title/tt4557208/

[Video Bitrate]:.............: 12.1mb/s
[Duration]:.............: 1 h 33 min
[Video Codec]:.............: AVC
[Resolution]:.............: 1920x1040 px
[Aspect Ratio]:.............: 1.85:1
[Audio Codec]:.............: DTS
[Audio Bitrate]:.............: 1509kb/s
[Audio Channels]:.............: 5.1ch
[Audio Language]:.............: English

Genre .......................: Horror | Thriller

[color=green][b]#EtHD -> To avoid fakes, ALWAYS check that the torrent was added by EtHD [/b][/color]



[color=green][b]To keep us going Support us by donating Bitcoin: 3MDamEmgKepqagtQe9eEdQ3NCrWEWjhoL5[/b][/color]

[b]Screens...[/b]
[url=https://extraimage.net/image/TCMi][img]https://extraimage.net/images/2017/10/20/faae6d376a94f8f71e31edb6262fe775.th.jpg[/img][/url]
[url=https://extraimage.net/image/TCMl][img]https://extraimage.net/images/2017/10/20/df3c54befb6f32f3cf160b6bc4362eee.th.jpg[/img][/url]
[url=https://extraimage.net/image/TCMI][img]https://extraimage.net/images/2017/10/20/50ef00ba2864374a62feccc426360f62.th.jpg[/img][/url]
[url=https://extraimage.net/image/TCMd][img]https://extraimage.net/images/2017/10/20/6c3d7e8c52a4f3ded8a02b0609006150.th.jpg[/img][/url]
[url=https://extraimage.net/image/TCMU][img]https://extraimage.net/images/2017/10/20/79beaa91aa8fada75513867381d3420c.th.jpg[/img][/url] ]]>
TeraCopy Pro 3 26 + Key http://glodls.to/torrent.php?id=2886429 http://glodls.to/torrent.php?id=2886429 Fri, 20 Oct 2017 06:57:12 +0100 Apps
Description:

TeraCopy for Microsoft Windows

One of the most common complaints about newer versions of Windows is the slow copying speed, especially when transferring lots of files over the network. If you want to speed up your copying or if you regularly transfer large amounts of data and have to stop the process to perform some other disk-intensive task, this program may be just what you need. TeraCopy is designed to copy and move files at the maximum possible speed. It skips bad files during the copying process, and then displays them at the end of the transfer so that you can see which ones need attention. TeraCopy can automatically check the copied files for errors by calculating their CRC checksum values. It also provides a lot more information about the files being copied than its Windows counterpart. TeraCopy integrates with Windows Explorer’s right-click menu and can be set as the default copy handler.

TeraCopy Pro:

You can also buy a Pro version of the program that lets you do the following:
Copy/move to favorite folders.
Select files with the same extension/same folder.
Remove selected files from the copy queue.
Get free updates and priority support.
More features coming soon!

TeraCopy Change Log:

Version 3.26

Bugfix release: version 3.2 deletes source file after canceling a move operation (only if verification is enabled).

[center][img]https://i1.wp.com/www.4realtorrentz.com/wp-content/uploads/2017/09/4realtorrentz.com_20171015-184510.png[/img][/center] ]]>
[DPFanatics] Cecilia Scott (One Hole Is Not Enough NEW** 20 10 17 ) http://glodls.to/torrent.php?id=2886428 http://glodls.to/torrent.php?id=2886428 Fri, 20 Oct 2017 06:55:52 +0100 Adult XXX
Genre: Gonzo, Anal, DP

Duration: 00:27:27

[size=5][url=http://HotImage.uk/img-59e99c64d7827.html]http://HotImage.uk/img-59e99c64d7827.html[/url]

[url=http://HotImage.uk/img-59e99c64dd45a.html]http://HotImage.uk/img-59e99c64dd45a.html[/url]

[url=https://www.xxximagetpb.org/image/zo7lX]https://www.xxximagetpb.org/image/zo7lX[/url]

[url=http://HotImage.uk/img-59e99c64e6832.html]http://HotImage.uk/img-59e99c64e6832.html[/url][/size]
]]>
Interracial Gang Bang [Dark X]**Split Scenes** http://glodls.to/torrent.php?id=2886427 http://glodls.to/torrent.php?id=2886427 Fri, 20 Oct 2017 06:54:58 +0100 Adult XXX [center][URL=http://imageteam.org/img-59e99abd8d396.html][IMG]http://imageteam.org/upload/small/2017/10/20/59e99abd8d358.jpg[/IMG][/URL]
[size=4]

Interracial Gang Bang
Stars: Adriana Chechik, Keisha Grey
Category: Gonzo, IR, Gangbang, Anal, DP
File size: 1.39 GB
Duration: 01:34:09

[b]SCREENS:[/b]

[url]http://imageteam.org/img-59e99bfd530fc.html[/url]
[url]http://imagedecode.com/img-59e99c0fe418a.html[/url]


[/size]
[/center] ]]>
SUPERAntiSpyware Professional 6 0 1250 + License Key http://glodls.to/torrent.php?id=2886426 http://glodls.to/torrent.php?id=2886426 Fri, 20 Oct 2017 06:54:57 +0100 Apps
Description:

SUPERAntiSpyware Professional 6.0.1250 + Key , SUPERAntiSpyware is the most thorough scanner on the market. Our Multi-Dimensional Scanning and Process Interrogation Technology will detect spyware that other products miss! SUPERAntiSpyware will remove ALL the Spyware, NOT just the easy ones! SUPERAntiSpyware features our unique Process Interrogation Technology (PIT) that allows threats to be detected no matter where they are hiding on your system. Many new types of threats utilize “Rootkits” or “Kernel Drivers” to hide themselves to avoid detection by standard anti-spyware applications. SUPERAntiSpyware’s Process Interrogation Technology locates even the toughest of threats. SUPERAntiSpyware is a next generation scanning system that goes beyond the typical rules based scanning methods. Our Multi-Dimensional Scanning system detects existing threats as well as threats of the future by analyzing threat characteristics in addition to code patterns.
SUPERAntiSpyware’s Process Interrogation Technology locates even the toughest of threats. SUPERAntiSpyware is a next generation scanning system that goes beyond the typical rules based scanning methods. Our Multi-Dimensional Scanning system detects existing threats as well as threats of the future by analyzing threat characteristics in addition to code patterns.

Features:

Quick, Complete and Custom Scanning of HDD, Registry, Memory and more
Detect and Remove Spyware, Adware, Malware, Trojans, Dialers, Worms, KeyLoggers and many other threats
Repair broken Internet Connections, Desktops, Registry Editing, Task Manager and more
Real-Time Blocking of threats
Schedule either Quick, Complete or Custom Scans Daily or Weekly
Quarantine items detected and removed for complete protection
Detailed scan logs with complete information about detected and removed threats and their locations

Screenshots:

[center][img]https://i0.wp.com/www.4realtorrentz.com/wp-content/uploads/2017/05/spy1.jpg[/img][/center] ]]>
Video Thumbnails Maker Platinum 10 0 0 4 + Crack http://glodls.to/torrent.php?id=2886425 http://glodls.to/torrent.php?id=2886425 Fri, 20 Oct 2017 06:53:01 +0100 Apps
Video Thumbnails Maker Platinum 10.0.0.4 Crack is a simple software that allows you to create small images from videos, screen caps, previews (lists), and this allows you to make your photo into video files. This program to list and category Videos Home use and application.

Video Thumbnails Maker is a software application for making catalogs by tiny photos (thumbnail) and the screenshot of video files. With the help of this program can be used for personal video or video shared on the Internet and network video catalog. In addition, the opportunity as a viewer is embedded in this software, the user can help with the video file by clicking on the relevant catalogs run or by clicking on thumbnail photos in the catalogs video from the same part and view.

Video Thumbnails Maker Platinum 10.0.0.4 New Features

Manufacturer: Build a video thumbnail
Player: By viewing photos, you can directly play and watch related videos, and you can watch videos right from the point where you took pictures.
You are required to create vtx image files.

Download Here Setup Download Here Crack
How To Install & Registered Video Thumbnails Maker Platinum 10.0.0.4 Crack

Download Setup Video Thumbnails Maker Platinum 10.0.0.4 Crack From below.
After Download install the setup as Normal.
After Install close the program.
Now Copy the Crack & paste into c/program files.
You done the Job.
Now You Start using & Enjoy. ]]>
VirtualBox 5 1 30 Build 118389 Multilingual + Extension Pack http://glodls.to/torrent.php?id=2886423 http://glodls.to/torrent.php?id=2886423 Fri, 20 Oct 2017 06:50:48 +0100 Apps
VirtualBox is a special program to create a memory PC virtual machines. Each virtual machine can contain an arbitrary set of virtual devices and separate the operating system. Scope of virtual machines is very wide – from performing the functions of software testing to create entire networks, which are easy to scale, and protect the load. VirtualBox is free, open source software.
Features:

VirtualBox can run as a GUI-interface or the command line.
To expand the functions of the program is designed special set of SDK.
Parameters of virtual machines are described in XML format and does not depend on the physical computer on which the system operates. Therefore, VMs format VirtalBox easily transferred from one PC to another.
When using the “guest” computers running Windows or Linux operating systems, you can use special tools which substantially facilitate switching between the physical and virtual computers.
You can create so-called “shared folders” (Shared folders), which are simultaneously accessible from both of these machines for the quick exchange of files between the guest and the physical PC.
VirtualBox allows you to connect USB-devices to virtual machines, allowing virtual machines to work with them directly.
VirtualBox fully supports the remote access protocol RDP (Remote Desktop Protocol). The virtual machine can operate as a RDP-server, allowing you to manage it remotely.

Extension Pack:

The virtual USB 2.0 (EHCI) device; see the section called “USB settings”.
VirtualBox Remote Desktop Protocol (VRDP) support; see the section called “Remote display (VRDP support)”.
Intel PXE boot ROM with support for the E1000 network card.
Experimental support for PCI passthrough on Linux hosts; see the section called “PCI passthrough”.

How to add extension pack to VirtualBox ?:
Start the VirtualBox, go to the File menu »Preferences» Plugins and add the downloaded file, with an extension .vbox-extpack ]]>
[18+ Korean] Are You Coming! - City of Angels (2017) 1080p mp4 800MB http://glodls.to/torrent.php?id=2886422 http://glodls.to/torrent.php?id=2886422 Fri, 20 Oct 2017 06:49:19 +0100 Movies
[center] [img]http://www.hancinema.net/photos/fullsizephoto875373.jpg[/img]

[img]http://www.pixsense.net/themes/latest/ssd/small/811/small-[18+Korean]AreYouComing!-CityofAngels2017.1080p.mp4.800MB.mp4_snapshot_01.04.17_[2017.10.20_12.16.15].jpg[/img]

Aka Title ....: ol-lae?! - cheon-sa-deul-eui do-si-pyeon
Stars ........: Papichaya Prapatanan, Jo Wan-jin
Genres .......: Erotic, Drama, Romance
Format File ..: .mkv .mp4
Quality ......: HDRip x264 AAC
Language .....: Korean
Runtime ......: 1h 10min
Source .......: 1080p.HDRip.H264.AAC-Unknown
Cast: Jo Wan-jin, Nuttida Kiatmingmongkol, Papichaya Prapatanan, Walaipech Link Khunthira, Watcharaporn Wongchai, Yoon Dong-gyoo
Director: NS. Tak
Country: Korea
Language: Korean

[color=red][b]Screen Shot & Thumbnails:-[/b][/color]

[URL]https://www.pixsense.net/site/v/3267397#811&3267397[/URL]
[URL]https://www.pixsense.net/site/v/3267398#811&3267398[/URL]
[URL]https://www.pixsense.net/site/v/3267399#811&3267399[/URL]
[URL]https://www.pixsense.net/site/v/3267400#811&3267400[/URL]
[URL]https://www.pixsense.net/site/v/3267401#811&3267401[/URL]
[URL]https://www.pixsense.net/site/v/3267402#811&3267402[/URL]
[URL]https://www.pixsense.net/site/v/3267403#811&3267403[/URL]

[color=red][b]..........Please Seed After Download ............[/b][/color][/center]
]]>
Weather Watcher Live 7 2 104 + patch http://glodls.to/torrent.php?id=2886421 http://glodls.to/torrent.php?id=2886421 Fri, 20 Oct 2017 06:48:29 +0100 Apps


Weather Watcher Live can access real-time weather information from thousands of NWS, WeatherBug and Weather Underground weather stations from all across the world.

Weather Watcher Live can be accessed from your system tray with a single click. Not only is it more convenient, you'll be able to access more weather data in one place. There are no ads. No waiting for that commercial to end. No need to navigate the Internet.

More weather stations

Weather Watcher Live can connect you to thousands of NWS, WeatherBug and Weather Underground weather stations from all across the world. You'll be able to access more weather stations and more weather data than any other single source on the Internet.

Get the whole picture

See a complete picture of your current conditions in the main Weather Watcher Live window.

The hours go on for days

View the upcoming hourly forecast for the next couple of days. It's easy to plan your day out when you know exactly what the weather is doing throughout the entire day.

Customize to your heart's content

Choose how often the weather updates. Convert your weather data. Choose which severe alerts to receive. Set the tray icon font and colors. Change the weather icons. Display map images as your desktop wallpaper. And much more.

Stick images to your desktop wallpaper

Use the Desktop Magnet feature to stick maps, weather cameras, or other images from the Internet to your desktop wallpaper. Move the magnets. Resize the magnets. Watch them change as they automatically update.
]]>
DPFanatics 17 10 20 Cecilia Scott One Hole Is Not Enough XXX 480p MP4-TK http://glodls.to/torrent.php?id=2886419 http://glodls.to/torrent.php?id=2886419 Fri, 20 Oct 2017 06:46:33 +0100 Adult XXX
[b]Screenshots:[/b]

[url]http://imagerar.com/imgs-59e99bcb4bcee.html[/url]

[url]http://imagerar.com/imgs-59e99bcb32f50.html[/url]

[url]http://imagerar.com/imgs-59e99bcb1e5fa.html[/url]

[url]http://imagerar.com/imgs-59e99ba9b2f20.html[/url]

File Size : 226 MiB
Duration : 27mn 27s
Video : h264, yuv420p, 854x480p, 1024 Kbps
Audio : aac , 2 ch, stereo , 128 Kbps ]]>
Webroot SecureAnywhere AntiVirus 9 0 18 38 + Keys http://glodls.to/torrent.php?id=2886418 http://glodls.to/torrent.php?id=2886418 Fri, 20 Oct 2017 06:45:58 +0100 Apps
Description:

Webroot SecureAnywhere protects you from online threats with the world’s most powerful cloud security solution, keeping you safe no matter how or where you connect. It scans faster, uses fewer system resources, and protects you in real-time by instantly identifying and blocking new threats as soon as they appear.

Key Features:

Hassle-Free Security
Set it and forget it. Always-on, continuous protection without interruptions or slowdowns.
Real-time Anti-Phishing
Proactively inspects URLs for malicious web content and blocks fake websites that trick you into entering your personal information.
Identity Protection
Works silently in the background to protect your usernames, account numbers, security codes and other personal information from theft.

Operating Systems:

Microsoft® Windows® XP 32- and 64-bit SP2, SP3
Windows Vista® 32-bit (all Editions), Windows Vista SP1, SP2 32- and 64-bit (all Editions)
Windows 7 32- and 64-bit (all Editions), Windows 7 SP1 32- and 64-bit (all Editions)
Windows 8 32- and 64-bit
Windows 8.1 32- and 64-bit
Windows 10 32- and 64-bit

Minimum System Requirements:

Intel® Pentium®/Celeron® family, or AMD® K6/Athlon™/Duron™ family, or other compatible processor
128 MB RAM (minimum)
10 MB Hard Disk Space
Microsoft Internet Explorer 7.0 and higher, Mozilla Firefox 3.6 and higher (32-bit only), – Google Chrome™ 10.0 or higher
Internet access.


[center][img]https://i2.wp.com/www.4realtorrentz.com/wp-content/uploads/2017/08/4realtorrentz.com_20171015-185306.png[/img][/center]
]]>
[TeensLikeItBig] Evelin Stone - Get Off The Phone NEW** 20/10/2017) http://glodls.to/torrent.php?id=2886417 http://glodls.to/torrent.php?id=2886417 Fri, 20 Oct 2017 06:45:56 +0100 Adult XXX
Genre: Brunette, Cheating, Couples Fantasies, Natural Tits, Stepsister

Duration: 00:35:26

[size=5][url=http://HotImage.uk/img-59e998fa9c2ce.html]http://HotImage.uk/img-59e998fa9c2ce.html[/url]

[url=http://HotImage.uk/img-59e998faa5ac2.html]http://HotImage.uk/img-59e998faa5ac2.html[/url]

[url=https://www.xxximagetpb.org/image/zoVSh]https://www.xxximagetpb.org/image/zoVSh[/url]

[url=http://HotImage.uk/img-59e998fab4079.html]http://HotImage.uk/img-59e998fab4079.html[/url][/size] ]]>
Webroot SecureAnywhere AntiVirus 9 0 18 38 Full Version (Key) http://glodls.to/torrent.php?id=2886416 http://glodls.to/torrent.php?id=2886416 Fri, 20 Oct 2017 06:44:29 +0100 Apps
Description:

Webroot SecureAnywhere protects you from online threats with the world’s most powerful cloud security solution, keeping you safe no matter how or where you connect. It scans faster, uses fewer system resources, and protects you in real-time by instantly identifying and blocking new threats as soon as they appear.

Key Features:

Hassle-Free Security
Set it and forget it. Always-on, continuous protection without interruptions or slowdowns.
Real-time Anti-Phishing
Proactively inspects URLs for malicious web content and blocks fake websites that trick you into entering your personal information.
Identity Protection
Works silently in the background to protect your usernames, account numbers, security codes and other personal information from theft.

Operating Systems:

Microsoft® Windows® XP 32- and 64-bit SP2, SP3
Windows Vista® 32-bit (all Editions), Windows Vista SP1, SP2 32- and 64-bit (all Editions)
Windows 7 32- and 64-bit (all Editions), Windows 7 SP1 32- and 64-bit (all Editions)
Windows 8 32- and 64-bit
Windows 8.1 32- and 64-bit
Windows 10 32- and 64-bit

Minimum System Requirements:

Intel® Pentium®/Celeron® family, or AMD® K6/Athlon™/Duron™ family, or other compatible processor
128 MB RAM (minimum)
10 MB Hard Disk Space
Microsoft Internet Explorer 7.0 and higher, Mozilla Firefox 3.6 and higher (32-bit only), – Google Chrome™ 10.0 or higher
Internet access.


[center][img]https://i2.wp.com/www.4realtorrentz.com/wp-content/uploads/2017/08/4realtorrentz.com_20171015-185306.png[/img][/center] ]]>
Windows 10 Manager 2 1 7 Final + Pre-Cracked http://glodls.to/torrent.php?id=2886415 http://glodls.to/torrent.php?id=2886415 Fri, 20 Oct 2017 06:42:34 +0100 Apps
Windows 10 Manager is a system utility that helps you optimize, tweak, repair and clean up Windows 10. It will increase your system speed, eliminate system fault, improve system security, and meet all of your expectations. Windows 10 Manager is a system utility that helps you optimize, tweak, repair and clean up Windows 10. It will increase your system speed, eliminate system fault, improve system security, and meet all of your expectations.


Information:

Get detailed system and all hardware information on your system; help you find out the installation key of Windows, Office products; show all detailed information of running processes and threads on your machine; Windows 10 Manager offers 1-clicking Cleaner cleans your system automatically; Repair Center helps you to fix various system problems.

Optimizer:

Tweak your system to improve windows startup and shutdown speed, tweak your hardware to increase system speed and performance; Control what is started on Windows startup, check and repair the advanced starup items to restore the malicious change by viruses; Tune up and optimize system services and Task Schedule, turn off smartly some unnecessary system services and tasks to improve system performance.

Cleaner:

Find out which files or folders engross your disk space and shown with chart; Smart Uninstaller can fully delete programs from your system without residual files and Registry entries; Find and clean junk files to increase Hard Disk space; Duplicate Files Finder can scan your computer for files with the same size, name and modification time; Registry Cleaner checks and repair incorrectly linked Registry entries; Registry Defrag rebuilds and re-indexes your Registry to reduce registry access time and therefore improve application responsiveness; Desktop Cleaner can clean useless icons and files on Desktop easily.

Customization:

Customize the look of your system by tweaking system Explorer, Desktop, Start Menu, Taskbar and notification area; Manage the pinned items and can pin any files or folders to Taskbar and Start Screen; Create the quick startup items on Taskbar with the Jump List launcher; Tune up Windows 10 boot menu; Edit context menus of mouse Right-Clicking; Edit easily the Win + X menu that shown when right-click on Desktop bottom-left corner or Win + X keyboard shortcut ; Create the shortcut that executed quick on run dialog box. Visual Customizer can change system and file type icons, change the lock screen image automatically.

Security:

Improve system security by tweaking system components, UAC and login settings; Tune up System Restore options; Hide and restrict to access drives and programs; Encrypt/decrypt files, move system folders to safe locations; Undelete the files that accidentally deleted or formatted on disk; Privacy Protector can maintain your personal privacy by eliminating the tracks that you leave behind; Hide, add or delete the Control Panel entries.

Network:

Optimize your Internet connection speed, manage all shares items; Tweak the Microsoft Edge and Internet Explorer easily; IP Switcher can switch your IP address easily on different networks; Edits the Hosts file to speed up surfing internet and permit only to access the specified Hosts.

Misc. Utilities:

Show the collection of Windows utilities and pin system items to Start Screen and Taskbar; split and merge any files; Automatically back up files regularly using Super Copy. Registry Tools help you to operate Registry easily.
[/center] ]]>
Better.Things.S02E06.iNTERNAL.720p.WEB.h264-BAMBOOZLE http://glodls.to/torrent.php?id=2886414 http://glodls.to/torrent.php?id=2886414 Fri, 20 Oct 2017 06:42:32 +0100 TV
[url=https://www.sparrowpics.com/image/kbFon][img]https://www.sparrowpics.com/images/2017/07/04/kbFon.png[/img][/url]

[b]Complete name : better.things.s02e06.internal.720p.web.h264-bamboozle.mkv
Format : Matroska
Format version : Version 4 / Version 2
File size : 435 MiB
Duration : 24 min 8 s
Overall bit rate : 2 521 kb/s
Encoded date : UTC 2017-10-20 06:35:37
Writing application : mkvmerge v8.8.0 ('Wind at my back') 64bit
Writing library : libebml v1.3.3 + libmatroska v1.4.4

Video
ID : 1
Format : AVC
Format/Info : Advanced Video Codec
Format profile : Main@L3.1
Format settings, CABAC : Yes
Format settings, ReFrames : 3 frames
Codec ID : V_MPEG4/ISO/AVC
Duration : 24 min 8 s
Bit rate mode : Constant
Bit rate : 2 500 kb/s
Width : 1 280 pixels
Height : 720 pixels
Display aspect ratio : 16:9
Frame rate mode : Constant
Frame rate : 29.970 (30000/1001) FPS
Color space : YUV
Chroma subsampling : 4:2:0
Bit depth : 8 bits
Scan type : Progressive
Bits/(Pixel*Frame) : 0.091
Stream size : 413 MiB (95%)
Default : Yes
Forced : No

Audio
ID : 2
Format : AAC
Format/Info : Advanced Audio Codec
Format profile : LC
Codec ID : A_AAC
Duration : 24 min 8 s
Bit rate : 126 kb/s
Channel(s) : 2 channels
Channel positions : Front: L R
Sampling rate : 44.1 kHz
Frame rate : 43.066 FPS (1024 spf)
Compression mode : Lossy
Delay relative to video : -3 ms
Stream size : 21.7 MiB (5%)
Language : English
Default : Yes
Forced : No[/b]

[url=https://www.sparrowpics.com/image/kbJ5y][img]https://www.sparrowpics.com/images/2017/07/04/kbJ5y.png[/img][/url]

[URL=https://tv.sparrowpics.com/image/DeguF][IMG]https://tv.sparrowpics.com/images/2017/10/20/DeguF.th.jpg[/IMG][/URL]

[URL=https://tv.sparrowpics.com/image/De47A][b]Click To View Screenshot[/b][/URL]

[URL=https://tv.sparrowpics.com/image/DeDm2][b]Click To View Screenshot[/b][/URL]

[URL=https://tv.sparrowpics.com/image/DeFRg][b]Click To View Screenshot[/b][/URL][/center] ]]>
[Hustler] Paige Ashley Paige Ashley in Paige s Place 2 (17 10 2017) http://glodls.to/torrent.php?id=2886413 http://glodls.to/torrent.php?id=2886413 Fri, 20 Oct 2017 06:42:07 +0100 Adult XXX
Genre :- Big Ass, Big Cock, Big Tits, Blowjob, Brunette, Doggystyle, Facial, Hardcore, Oral, Petite, 480p]

Screenshot :-

[url=http://imgtorrnt.in/view.php?id=6pxDcPw][color=green] http://imgtorrnt.in/view.php?id=6pxDcPw [/color] [/url]

[url=http://imgtorrnt.in/view.php?id=IEqQQA4][color=green] http://imgtorrnt.in/view.php?id=IEqQQA4 [/color] [/url]

[img]http://i91.fastpic.ru/big/2017/1019/e6/4f52b234d3fae795a0075875c392dee6.png[/img]


BTC Address - 1J6iRHTWiXg2Gjhg7ggtBrY87buscQ5ngB

]]>
Windows and Office Genuine ISO Verifier v8 5 7 http://glodls.to/torrent.php?id=2886412 http://glodls.to/torrent.php?id=2886412 Fri, 20 Oct 2017 06:40:45 +0100 Apps
?
Windows and Office Genuine ISO Verifier is a lightweight piece of software that enables you to determine whether you have a genuine copy of Windows or Office with minimal effort.

Straightforward installation and intuitive interface
Since the application comes in a portable package, the setup is a quick matter of decompressing the archive in the desired location on your hard disk. However, in case you are having a hard time accessing the file, then you should consider Unblocking the tool from Properties in the context menu.

Even though it is not exactly eye-candy, the interface is user-friendly and unlikely to cause you any real troubles while navigating. In fact, the UI is comprised of a single, medium-size window that features very intuitive fields. Consequentially, functionality-wise, using the tool entails specifying the input file and the app does the rest of the job automatically.

It supports numerous versions and languages of Office and Windows
The strong point of the program stems from the fact that it is designed to recognize a vast array of hashes that are associated with Microsoft's operating system and Office bundle. To be more precise, the utility can compare file SHA-1 to relatively old Microsoft releases, such as Office 95 and Windows XP.

On a side note, in case you already performed a scan for the file using other third party software solutions, then you can add the SHA-1 in the dedicated field and determine the authenticity of the file on the spot. Then again, verifying an ISO file is not a lengthy process and should not take too much of your time.

A useful app that can spare you legal complications
In the eventuality that you want to reinstall Windows or Office at work or home, but you do not know too much about the file you stumbled across, then perhaps Windows and Office Genuine ISO Verifier can help you determine if you have the genuine copies of the software solutions.[/center] ]]>
Northpole.Open.For.Christmas.2015.720p.BluRay.x264-JustWatch http://glodls.to/torrent.php?id=2886411 http://glodls.to/torrent.php?id=2886411 Fri, 20 Oct 2017 06:38:40 +0100 Movies
[b]ImDb: [URL]http://www.imdb.com/title/tt4843046[/URL][/b]

[url=https://www.sparrowpics.com/image/kbFon][img]https://www.sparrowpics.com/images/2017/07/04/kbFon.png[/img][/url]

[b]Complete name : northpole.open.for.christmas.2015.720p.bluray.x264-justwatch.mkv
Format : Matroska
Format version : Version 2
File size : 4.37 GiB
Duration : 1 h 26 min
Overall bit rate : 7 253 kb/s
Writing application : mkvmerge v4.1.1 ('Bouncin' Back') built on Jul 3 2010 22:54:08
Writing library : libebml v1.0.0 + libmatroska v1.0

Video
ID : 1
Format : AVC
Format/Info : Advanced Video Codec
Format profile : High@L4.1
Format settings, CABAC : Yes
Format settings, ReFrames : 5 frames
Codec ID : V_MPEG4/ISO/AVC
Duration : 1 h 26 min
Bit rate : 5 741 kb/s
Width : 1 280 pixels
Height : 720 pixels
Display aspect ratio : 16:9
Frame rate mode : Constant
Frame rate : 23.976 (24000/1001) FPS
Color space : YUV
Chroma subsampling : 4:2:0
Bit depth : 8 bits
Scan type : Progressive
Bits/(Pixel*Frame) : 0.260
Stream size : 3.37 GiB (77%)
Writing library : x264 core 152 r2851 ba24899
Encoding settings : cabac=1 / ref=5 / deblock=1:-2:-2 / analyse=0x3:0x113 / me=umh / subme=8 / psy=1 / psy_rd=1.00:0.00 / mixed_ref=1 / me_range=16 / chroma_me=1 / trellis=2 / 8x8dct=1 / cqm=0 / deadzone=21,11 / fast_pskip=1 / chroma_qp_offset=-2 / threads=12 / lookahead_threads=2 / sliced_threads=0 / nr=0 / decimate=1 / interlaced=0 / bluray_compat=0 / constrained_intra=0 / bframes=3 / b_pyramid=2 / b_adapt=2 / b_bias=0 / direct=3 / weightb=1 / open_gop=0 / weightp=2 / keyint=240 / keyint_min=24 / scenecut=40 / intra_refresh=0 / rc_lookahead=50 / rc=2pass / mbtree=1 / bitrate=5741 / ratetol=1.0 / qcomp=0.60 / qpmin=0 / qpmax=69 / qpstep=4 / cplxblur=20.0 / qblur=0.5 / ip_ratio=1.40 / aq=1:1.00
Language : English
Default : Yes
Forced : No

Audio
ID : 2
Format : DTS
Format/Info : Digital Theater Systems
Mode : 16
Format settings, Endianness : Big
Codec ID : A_DTS
Duration : 1 h 26 min
Bit rate mode : Constant
Bit rate : 1 509 kb/s
Channel(s) : 6 channels
Channel positions : Front: L C R, Side: L R, LFE
Sampling rate : 48.0 kHz
Frame rate : 93.750 FPS (512 spf)
Bit depth : 24 bits
Compression mode : Lossy
Stream size : 931 MiB (21%)
Language : English
Default : Yes
Forced : No

Menu
00:00:00.000 : en:00:00:00.000
00:06:09.160 : en:00:06:09.160
00:14:12.185 : en:00:14:12.185
00:20:03.661 : en:00:20:03.661
00:26:51.193 : en:00:26:51.193
00:31:57.707 : en:00:31:57.707
00:39:05.635 : en:00:39:05.635
00:47:39.815 : en:00:47:39.815
00:54:43.280 : en:00:54:43.280
01:07:59.075 : en:01:07:59.075
01:13:38.623 : en:01:13:38.623
01:22:09.424 : en:01:22:09.424[/b]

[url=https://www.sparrowpics.com/image/kbJ5y][img]https://www.sparrowpics.com/images/2017/07/04/kbJ5y.png[/img][/url]

[URL=https://www.sparrowpics.com/image/2VtAc][IMG]https://www.sparrowpics.com/images/2017/10/20/2VtAc.th.jpg[/IMG][/URL]

[URL=https://www.sparrowpics.com/image/2V8H6][b]Click To View Screenshot[/b][/URL]

[URL=https://www.sparrowpics.com/image/2VHBh][b]Click To View Screenshot[/b][/URL]

[URL=https://www.sparrowpics.com/image/2Vcut][b]Click To View Screenshot[/b][/URL][/center] ]]>
WinX DVD Ripper Platinum 8 6 0 204 + Crack http://glodls.to/torrent.php?id=2886410 http://glodls.to/torrent.php?id=2886410 Fri, 20 Oct 2017 06:38:17 +0100 Apps
WinX DVD Ripper Platinum Crack is a Windows-based DVD ripper tool capable of ripping any DVD to mainstream videos, such as rip DVD to AVI, DVD to MP4, H.264, MPEG, and FLV. This is a good DVD ripper brings No.1 fast DVD ripping solution thanks to the cutting-edge tech to support Multi-core Hyper-threading and CPU. WinX DVD Ripper Platinum Crack Free Download Latest Version for Windows and Mac. It is offline setup installer of DVD Ripper. It helps faultlessly convert DVD to Apple (iPad, iTunes, iPhone, iPod, Apple TV), Android (Nexus, Samsung, HTC,), Microsoft (Xbox, Windows Phone, Surface), Chromecast, Sony etc.

The DVD copy feature supports 1:1 clone that full DVD disc to ISO image and DVD folder. It allows you to copy the full 9title content of DVD to MPEG2 file with lossless video quality. The whole process takes very short time (5 min only).
WinX DVD Ripper Platinum Crack Mac + Windows

WinX DVD Ripper Platinum Key offers fast conversion of DVD to AVI, WMV, MP4, MPEG, AVC, TS/MTS/M2TS, DVD to MOV and M4V (accepted by Mac), and DVD to FLV and more for sharing on Facebook, YouTube, Vimeo and many other sites. Converting a DVD movie takes as short as 5 minutes only. For Advanced users, this DVD ripping software offers flexible choices to fine-tune and adjust parameters to tailor the output videos, in terms of video audio codec, bitrate, frame rate, aspect ratio, resolution, audio codec, audio channel number, sample rate, etc. You can customize and apply your own settings to all.
WinX DVD Ripper Platinum Key Features:

Clone DVD to ISO and Copy DVD: The built-in DVD copy feature supports 1:1 clone full DVD disc to ISO image and DVD folder. WinX also allows users to copy main/full title content of DVD to MPEG2 file with lossless video quality and 5.1 Channel DTS Dolby audio.
Flexible Settings for Advanced Users: New users can enjoy flexible choices to fine-tune and adjust parameters, including video audio codec; aspect ratio; bit rate; audio codec; frame rate; resolution and audio channel number.
Unlock Region Code and Copy Protections: WinX DVD Ripper Platinum 8.5.0 key provides the breakthrough performance to access all DVD encryption technologies, including DVD CSS; RCE; Sony ArccOS; region code; UOPs; and Disney X-project DRM.
Rip DVD to iPad/iPhone/Android: Rip/Backup DVD to portable devices and smart TVs, such as DVD to iPhone, iPad, iPod, and Apple TV.

New Updates: Launch new version With new touch WinX DVD Ripper Platinum 8.6.0.204 Free Here
How to Crack WinX DVD Ripper Platinum Free?

First Download WinX DVD Ripper Platinum
Second Download WinX DVD Ripper Platinum 8.6.0Crack File From Bellow
install it and Run
Click on Active it and Wait
Done.
[/center] ]]>
DigitalPlayground 17 10 20 Adriana Chechik Namastay-On-The-Cock XXX 480p MP4-TK http://glodls.to/torrent.php?id=2886409 http://glodls.to/torrent.php?id=2886409 Fri, 20 Oct 2017 06:37:46 +0100 Adult XXX
[b]Screenshots:[/b]

[url]http://imagerar.com/imgs-59e999bcabcc4.html[/url]

[url]http://imagerar.com/imgs-59e999bca4a1c.html[/url]

[url]http://imagerar.com/imgs-59e999bc9df60.html[/url]

[url]http://imagerar.com/imgs-59e9998640096.html[/url]

File Size : 259 MiB
Duration : 31mn 19s
Video : h264, yuv420p, 854x480p, 1024 Kbps
Audio : aac , 2 ch, stereo , 128 Kbps ]]>
Bang Europe 35[Bang]**Split Scenes** http://glodls.to/torrent.php?id=2886408 http://glodls.to/torrent.php?id=2886408 Fri, 20 Oct 2017 06:37:39 +0100 Adult XXX [center][URL=http://imageteam.org/img-59e998af19e2e.html][IMG]http://imageteam.org/upload/small/2017/10/20/59e998af19df1.jpg[/IMG][/URL]
[size=4]

Stars: Chinita
Category: Anal, All Sex
File size: 0.98 GB
Duration: 1:01:10

[b]SCREENS:[/b]

[url]http://imgclick.net/1g4uasuzsshk/Bang_Europe_c1.jpg.html[/url]
[url]http://imageteam.org/img-59e998baeab69.html[/url]


[/size]
[/center] ]]>
[BrothaLovers] Pristine Edge & Lowtru (16 10 2017 http://glodls.to/torrent.php?id=2886407 http://glodls.to/torrent.php?id=2886407 Fri, 20 Oct 2017 06:37:12 +0100 Adult XXX
Genre :- IR, Black Cock, Gonzo, 480p]

Screenshot :-

[url=http://imgtorrnt.in/view.php?id=0XukrJt][color=green] http://imgtorrnt.in/view.php?id=0XukrJt [/color] [/url]

[url=http://imgtorrnt.in/view.php?id=QAU9U4J][color=green] http://imgtorrnt.in/view.php?id=QAU9U4J [/color] [/url]

[img]http://i91.fastpic.ru/big/2017/1019/44/1cbe3468ccc6ed63aedeb0603661c044.jpeg[/img]


BTC Address - 1J6iRHTWiXg2Gjhg7ggtBrY87buscQ5ngB

]]>
PornstarsLikeItBig 17 10 20 Alexis Fawx Pornstar Protection Program XXX 480p MP4-TK http://glodls.to/torrent.php?id=2886406 http://glodls.to/torrent.php?id=2886406 Fri, 20 Oct 2017 06:34:51 +0100 Adult XXX
[b]Screenshots:[/b]

[url]http://imagerar.com/imgs-59e9990d52a65.html[/url]

[url]http://imagerar.com/imgs-59e9990d4c200.html[/url]

[url]http://imagerar.com/imgs-59e9990d45595.html[/url]

[url]http://imagerar.com/imgs-59e998e71faed.html[/url]

File Size : 250 MiB
Duration : 30mn 10s
Video : h264, yuv420p, 854x480p, 1024 Kbps
Audio : aac , 2 ch, stereo , 128 Kbps ]]>
PixAndVideo 17 10 20 Heather Harris Forever Heather XXX 480p MP4-TK http://glodls.to/torrent.php?id=2886405 http://glodls.to/torrent.php?id=2886405 Fri, 20 Oct 2017 06:33:47 +0100 Adult XXX
[b]Screenshots:[/b]

[url]http://imagerar.com/imgs-59e998cd1df75.html[/url]

[url]http://imagerar.com/imgs-59e998cd1812d.html[/url]

[url]http://imagerar.com/imgs-59e998cd11dda.html[/url]

[url]http://imagerar.com/imgs-59e9981710b9d.html[/url]

File Size : 168 MiB
Duration : 20mn 30s
Video : h264, yuv420p, 854x480p, 1024 Kbps
Audio : aac , 2 ch, stereo , 128 Kbps ]]>
PornstarPlatinum 17 10 20 Joslyn James Your Job Is To Fuck Me XXX 480p MP4-TK http://glodls.to/torrent.php?id=2886404 http://glodls.to/torrent.php?id=2886404 Fri, 20 Oct 2017 06:33:05 +0100 Adult XXX
[b]Screenshots:[/b]

[url]http://imagerar.com/imgs-59e998a3bea2c.html[/url]

[url]http://imagerar.com/imgs-59e998a3b8aa8.html[/url]

[url]http://imagerar.com/imgs-59e998a3b28e5.html[/url]

[url]http://imagerar.com/imgs-59e99873dd440.html[/url]

File Size : 128 MiB
Duration : 15mn 25s
Video : h264, yuv420p, 854x480p, 1024 Kbps
Audio : aac , 2 ch, stereo , 128 Kbps ]]>
Armed.Response.2017.1080p.BluRay.x264-BRMP http://glodls.to/torrent.php?id=2886403 http://glodls.to/torrent.php?id=2886403 Fri, 20 Oct 2017 06:32:56 +0100 Movies
[b]ImDb: [URL]http://www.imdb.com/title/tt4557208[/URL][/b]

[url=https://www.sparrowpics.com/image/kbFon][img]https://www.sparrowpics.com/images/2017/07/04/kbFon.png[/img][/url]

[b]Complete name : armed.response.2017.1080p.bluray.x264-brmp.mkv
Format : Matroska
Format version : Version 2
File size : 7.94 GiB
Duration : 1 h 33 min
Overall bit rate : 12.1 Mb/s
Encoded date : UTC 2017-10-20 04:42:32
Writing application : mkvmerge v17.0.0 ('Be Ur Friend') 64-bit
Writing library : libebml v1.3.5 + libmatroska v1.4.8

Video
ID : 1
Format : AVC
Format/Info : Advanced Video Codec
Format profile : High@L4.1
Format settings, CABAC : Yes
Format settings, ReFrames : 4 frames
Codec ID : V_MPEG4/ISO/AVC
Duration : 1 h 33 min
Bit rate : 10.6 Mb/s
Width : 1 920 pixels
Height : 1 040 pixels
Display aspect ratio : 1.85:1
Frame rate mode : Constant
Frame rate : 23.976 (24000/1001) FPS
Color space : YUV
Chroma subsampling : 4:2:0
Bit depth : 8 bits
Scan type : Progressive
Bits/(Pixel*Frame) : 0.222
Stream size : 6.95 GiB (88%)
Writing library : x264 core 152 r2851 ba24899
Encoding settings : cabac=1 / ref=4 / deblock=1:0:0 / analyse=0x3:0x133 / me=umh / subme=7 / psy=1 / psy_rd=1.00:0.00 / mixed_ref=1 / me_range=16 / chroma_me=1 / trellis=1 / 8x8dct=1 / cqm=0 / deadzone=21,11 / fast_pskip=0 / chroma_qp_offset=-2 / threads=18 / lookahead_threads=3 / sliced_threads=0 / nr=0 / decimate=1 / interlaced=0 / bluray_compat=0 / constrained_intra=0 / bframes=3 / b_pyramid=2 / b_adapt=1 / b_bias=0 / direct=1 / weightb=1 / open_gop=0 / weightp=2 / keyint=240 / keyint_min=23 / scenecut=40 / intra_refresh=0 / rc_lookahead=40 / rc=2pass / mbtree=1 / bitrate=10610 / ratetol=1.0 / qcomp=0.60 / qpmin=10 / qpmax=51 / qpstep=4 / cplxblur=20.0 / qblur=0.5 / ip_ratio=1.40 / aq=1:1.00
Default : Yes
Forced : No

Audio
ID : 2
Format : DTS
Format/Info : Digital Theater Systems
Mode : 16
Format settings, Endianness : Big
Codec ID : A_DTS
Duration : 1 h 33 min
Bit rate mode : Constant
Bit rate : 1 509 kb/s
Channel(s) : 6 channels
Channel positions : Front: L C R, Side: L R, LFE
Sampling rate : 48.0 kHz
Frame rate : 93.750 FPS (512 spf)
Bit depth : 24 bits
Compression mode : Lossy
Stream size : 1 013 MiB (12%)
Language : English
Default : Yes
Forced : No[/b]

[url=https://www.sparrowpics.com/image/kbJ5y][img]https://www.sparrowpics.com/images/2017/07/04/kbJ5y.png[/img][/url]

[URL=https://www.sparrowpics.com/image/2VbEm][IMG]https://www.sparrowpics.com/images/2017/10/20/2VbEm.th.jpg[/IMG][/URL]

[URL=https://www.sparrowpics.com/image/2V49r][b]Click To View Screenshot[/b][/URL]

[URL=https://www.sparrowpics.com/image/2VEIW][b]Click To View Screenshot[/b][/URL]

[URL=https://www.sparrowpics.com/image/2VNan][b]Click To View Screenshot[/b][/URL][/center] ]]>
[PornstarsLikeItBig] Alexis Fawx - Pornstar Protection Program NEW** 20/10/2017) http://glodls.to/torrent.php?id=2886401 http://glodls.to/torrent.php?id=2886401 Fri, 20 Oct 2017 06:32:07 +0100 Adult XXX
Genre: Big Tits, Blonde, Brunette, Interracial, MILF, Squirt

Duration: 00:30:11

[size=5][url=http://HotImage.uk/img-59e9967293a5b.html]http://HotImage.uk/img-59e9967293a5b.html[/url]

[url=http://HotImage.uk/img-59e996729dbd1.html]http://HotImage.uk/img-59e996729dbd1.html[/url]

[url=https://www.xxximagetpb.org/image/zovU8]https://www.xxximagetpb.org/image/zovU8[/url]

[url=http://HotImage.uk/img-59e99672ac7d8.html]http://HotImage.uk/img-59e99672ac7d8.html[/url][/size] ]]>
Solo Big Boob Girls Pack 1 - Videos and Pics - roflcopter2110 http://glodls.to/torrent.php?id=2886400 http://glodls.to/torrent.php?id=2886400 Fri, 20 Oct 2017 06:31:30 +0100 Adult XXX
458 Pics
3 Videos

Pics Preview:
https://s19.postimg.org/rceamo32b/103.jpg
https://s19.postimg.org/klxtd8vc3/anastasialux-7-42.jpg
https://s19.postimg.org/7hs90kb03/rachel-aldana-royal-purple-set-2-019.jpg

Video Screens:
https://s19.postimg.org/be5kwqymb/vlcsnap-2017-10-20-00h31m51s132.png
https://s19.postimg.org/50ghtfokj/vlcsnap-2017-10-20-00h32m51s392.png
https://s19.postimg.org/qzmwgofpf/vlcsnap-2017-10-20-00h33m36s572.png ]]>
[18+ Korean]Friends Lovers (2016) WEB-DL HDRIP http://glodls.to/torrent.php?id=2886399 http://glodls.to/torrent.php?id=2886399 Fri, 20 Oct 2017 06:31:06 +0100 Movies
[img]http://www.4loy.com/wp-content/uploads/2017/08/Friends-Lovers-2016-185x278.jpg[/img]

[img]http://www.pixsense.net/themes/latest/ssd/small/811/small-[18+Korean]FriendsLovers2016WEB-DLHDRIP.MP4_snapshot_23.47_[2017.10.20_11.53.39].jpg[/img]

[code]General
Complete name : Friends Lovers (2016).MP4
Format : MPEG-4
Format profile : Base Media
Codec ID : isom (isom/iso2/avc1/mp41)
File size : 534 MiB
Duration : 52 min 40 s
Overall bit rate : 1 417 kb/s
Writing application : Lavf57.56.101

Video
ID : 1
Format : AVC
Format/Info : Advanced Video Codec
Format profile : High@L3.1
Format settings, CABAC : Yes
Format settings, ReFrames : 5 frames
Codec ID : avc1
Codec ID/Info : Advanced Video Coding
Duration : 52 min 40 s
Duration_LastFrame : 1 ms
Bit rate : 1 280 kb/s
Width : 1 920 pixels
Height : 1 080 pixels
Display aspect ratio : 16:9
Frame rate mode : Constant
Frame rate : 29.970 (30000/1001) FPS
Color space : YUV
Chroma subsampling : 4:2:0
Bit depth : 8 bits
Scan type : Progressive
Bits/(Pixel*Frame) : 0.021
Stream size : 483 MiB (90%)
Writing library : x264 core 148 r2643 5c65704

Audio
ID : 2
Format : AAC
Format/Info : Advanced Audio Codec
Format profile : LC
Codec ID : 40
Duration : 52 min 40 s
Bit rate mode : Constant
Bit rate : 128 kb/s
Channel(s) : 2 channels
Channel positions : Front: L R
Sampling rate : 48.0 kHz
Frame rate : 46.875 FPS (1024 spf)
Compression mode : Lossy
Stream size : 48.2 MiB (9%)
Default : Yes
Alternate group : 1[/code]

[color=red][b]Screen Shot & Thumbnails:-[/b][/color]

[URL]https://www.pixsense.net/site/v/3267284#811&3267284[/URL]
[URL]https://www.pixsense.net/site/v/3267285#811&3267285[/URL]
[URL]https://www.pixsense.net/site/v/3267286#811&3267286[/URL]
[URL]https://www.pixsense.net/site/v/3267287#811&3267287[/URL]
[URL]https://www.pixsense.net/site/v/3267288#811&3267288[/URL]
[URL]https://www.pixsense.net/site/v/3267289#811&3267289[/URL]
[URL]https://www.pixsense.net/site/v/3267290#811&3267290[/URL]

[color=red][b]..........Please Seed After Download ............[/b][/color][/center]
]]>
[LetsTryAnal/Mofos]Katy Jayne - Backdoor Sex For Backstage Pass(NEW***10 24 2017) http://glodls.to/torrent.php?id=2886398 http://glodls.to/torrent.php?id=2886398 Fri, 20 Oct 2017 06:27:45 +0100 Adult XXX [center][URL=http://damimage.com/img-59e996978abd7.html][IMG]http://damimage.com/upload/small/2017/10/20/59e996978ab9f.jpeg[/IMG][/URL]
[size=4]

Katy Jayne - Backdoor Sex For Backstage Pass
Category: anal, pov, couples fantasies, sex, handjob, titty fuck, doggystyle
File size: 363 MB
Duration: 44:29


[b]SCREENS:[/b]

[url]http://damimage.com/img-59e996a23cc51.html[/url]
[url]https://xeimg.yt/img-59e996c0829c6.html[/url]

[b]SHOOT:[/b]
[url]http://imageteam.org/img-59e996c4b0c61.html[/url]
[/size]
[/center]
]]>
VueScan 9 5 87 + x64 + patch http://glodls.to/torrent.php?id=2886396 http://glodls.to/torrent.php?id=2886396 Fri, 20 Oct 2017 06:26:47 +0100 Apps

VueScan Crack-is the most popular scanning software today. This program is used by professional photographers as well as users at home, offices or anywhere else. This is a scanning program which has most high-quality flatbed and film scanners too. It can produce high-quality scans that have good coloring features and coloring balance.

It also has well in features for restore dull colors, set of scanning and other best features for the use of professional photographers. its also used for Mac OS X and Linx, if you have an iPhone , iPad or Android phone Tablet, then its also have application for mobile Vuescan Key Generator Mobile Free for scanning.

VUESCAN KEYGEN FREE

This software is very easy to use. That’s why this software is the first option for the professional users.VueScan Pro 9.5.87 Crack does not install anything in your operating system but the other scanner software does many changes in your system. This software will not only save your time but also make money for you. This will also increase your production because it is advanced in options and best features.

This is why it gives the best result to the users. The best thing for this VueScan Torrent software is that it improves your scans in batter than the other software with accurate colors balance. It can support more than 600 scanners as well as 200 plus digital camera’s raw materials which make it the best scanner software in the world.

FUNCTION OF VUESCAN

The VueScan Pro Crack software can produce the scanned documents pictures and videos into PDF, JPEG, TIFF and more formats. Similarly, it can also resize the pictures and videos. More than 20 languages are added into this software. You can replace your software which came with your scanner.
CHARACTERISTICS OF VUESCAN PRO CRACK

   User interface is very simple to use.
   Step by step guidance will put the user’s cell to its goal.
   Support more than 600 scanners and 200 cameras.
   Convert images to many formats as the given above.
   Reducing the size of images to send through mail.
   Guide catalogs in HTML and PDF formats attached.
   Supports more than 20 languages around the world like English, German, Italian, Japanese, Korean, Russian, French, and more.
   It supports Windows 95/98 / Vista / 2000 / XP and Mac et
   Increase your productivity and quality.
   Downloaded more than 6 million times.
   Does not change anything in your system.
   Create raw files in your system.
   IT8 color calibration.
   Licensed version.
   Can use as long as you want.
   Take less time to install.
   Easy to use.

[img]https://i0.wp.com/crackwallet.com/wp-content/uploads/2017/08/VueScan-Pro-9.5-Full-Version.jpg[/img][/center]
]]>
Project.Runway.S16E10.WEB.h264-TBS[ettv] http://glodls.to/torrent.php?id=2886395 http://glodls.to/torrent.php?id=2886395 Fri, 20 Oct 2017 06:25:22 +0100 TV Et TV Shows


Project.Runway.S16E10.WEB.h264-TBS


[Format]: Matroska
[Duration]: 1h 1mn
[Resolution]: 960 x 540 pixels
[Display aspect ratio]: 16:9
[Frame rate mode]: Constant
[Frame rate]: 23.976 fps


[color=green][b]#ettv -> To avoid fakes, ALWAYS check that the torrent was added by ettv[/b][/color]




[color=green][b]To keep us going Support us by donating Bitcoin: 3MDamEmgKepqagtQe9eEdQ3NCrWEWjhoL5[/b][/color]

[b]Screens...[/b]
[url=https://extraimage.net/image/TC9B][img]https://extraimage.net/images/2017/10/20/5c6d37e9df2b2ca4893ddacf8a1e0558.th.jpg[/img][/url] ]]>
Katy Jayne - Backdoor Sex For Backstage Pass http://glodls.to/torrent.php?id=2886394 http://glodls.to/torrent.php?id=2886394 Fri, 20 Oct 2017 06:24:41 +0100 Adult XXX
[b]Date[/b]: 20.10.2017
[b]Cast[/b]: Katy Jayne
[b]Genre[/b]: anal, pov, couples fantasies, sex, handjob, titty fuck, doggystyle
[b]Name[/b]: Backdoor Sex For Backstage Pass


[b]Video[/b]: 1280x720 (16:9), 29.970 fps
[b]Audio[/b]: AAC, 128 Kbps, 2 ch, 48 KHz
[b]Format[/b]: mp4
[b]Duration[/b]: 00:44:29
]]>
WinToFlash Professional 1 12 0000 + Patch http://glodls.to/torrent.php?id=2886393 http://glodls.to/torrent.php?id=2886393 Fri, 20 Oct 2017 06:24:29 +0100 Apps

WinToFlash Professional 1.12.0000 Crack starts a wizard which helps pull over the articles of a windows installation CD or DVD and prep the USB drive to get the replacement that’s a drive that is bootable is optical. It might additionally repeat this with your LiveCD.

WinToFlash Professional 1.12.0000 makes it possible to pull throughout the articles of Windows installation the disk and prep USB drive to be an alternative solution that is bootable the drive that is optical that is enabling you to install your Windows through the flash card or drive, HDD, etc. to your personal computer that is or that is individual. And also this simply is not all it might do.

WinToFlash Professional 1.12.0000 With Keys will probably create a modification that is significant is positive is significant the technique you work. It will make life a complete lot that is complete for you personally separately. Rapidly and just install this program you need as well as right away at all essays which can be you’ll composing on Windows and utilize that is making of USB. The WinToFlash does the working job that is working free for you.

WinToFlash Professional 1.12.0000 Portable Helps you pull throughout the articles regarding the Windows XP, Windows 2003, Windows Vista, Windows 2008, the Windows 7, Windows 8 installation disk and prep the USB drive to be a replacement that is bootable any drive that is optical that is mainly with reference to you can install your Windows from the flash drive or the card, HDD, etc. to your netbook or computer.
Key Features:

Pull the articles associated with Windows XP/7/2003/Vista/2008/8 install disc and prep the USB drive showing into an upgraded that is the bootable.
Support all editions of Windows. Home, Media Center, expert, Ultimate, etc.
Windows 32 support and bit that is 64-bit is complete.
Rub a USB news (destroy all data on it), Transfer a Recovery CD or even an OS that is tiny predicated on Windows XP/2003, WinPE centered on Windows Vista/2008/7/8) to a USB drive.
Create a USB drive with crisis boot loader for Windows 2000/XP/2003. Create the USB drive with Windows XP/2003 healing Console.
Transfer MS-DOS to a USB drive. Structure USB drive to FAT16 or FAT32.
Fine tune any choice of partitions dining table. Find the tune any choice of FAT file system for better compatibility.
Select boot the loader for a USB drive, like GRUB or Standard one.
Produce the solution file for Windows Setup.
Include quantity that is clearly a username that is etc. that is serial.
Pick partition type – CHS or LBA for better compatibility with motherboards that are few.
Windows transfer that is setup tune that is ok.
Fix the some Windows Setup problems, like 0x6B BSOD.
Check USB drive for any file system errors following the Windows transfer procedure that initiated.
AntiSMS capacity to fix boot blockers (deliver SMS to the number/buy that is quick to unlock your personal computer problem) or viruses.
Transfer pages help to keep your transfer options and load it whenever you’d like.
WinToFlash is the application that is compact carry that is you’ll with you for a computer device that is portable utilize on any computer.
Step-By-Step log file.
Windows number that is serial in profile utilizing the password.
Updates reminder.
A wizard with just two alternatives for quick Windows transfer that is setup.
The natural to utilize screen this is the classic like the backup utility.
Now includes WinToFlash that is free Suggestor.
Multi-language
]]>
Private Gold 121 - Adventures on the Lust Boat[Private]**Split Scenes** http://glodls.to/torrent.php?id=2886392 http://glodls.to/torrent.php?id=2886392 Fri, 20 Oct 2017 06:23:31 +0100 Adult XXX [size=4]

Stars: Tarra White, Donna Bell, Candy Alexa, Melanie Memphis, Blanche
Category: Double Penetration, Anal, Feature
File size: 1.87 GB
Duration: 01:50:02

[b]SCREENS:[/b]

[url]http://imageteam.org/img-59e99219da3a6.html[/url]
[url]http://damimage.com/img-59e99233c38f6.html[/url]
[url]http://imgclick.net/pfkcmbsinarm/3.jpeg.html[/url]
[url]http://imagedecode.com/img-59e99275269af.html[/url]
[url]https://img.yt/img-59e992927aa90.html[/url]

[/size]
[/center] ]]>
WinToFlash Professional 1 12 0000 Portable http://glodls.to/torrent.php?id=2886391 http://glodls.to/torrent.php?id=2886391 Fri, 20 Oct 2017 06:23:22 +0100 Apps

WinToFlash Professional 1.12.0000 Crack starts a wizard which helps pull over the articles of a windows installation CD or DVD and prep the USB drive to get the replacement that’s a drive that is bootable is optical. It might additionally repeat this with your LiveCD.

WinToFlash Professional 1.12.0000 makes it possible to pull throughout the articles of Windows installation the disk and prep USB drive to be an alternative solution that is bootable the drive that is optical that is enabling you to install your Windows through the flash card or drive, HDD, etc. to your personal computer that is or that is individual. And also this simply is not all it might do.

WinToFlash Professional 1.12.0000 With Keys will probably create a modification that is significant is positive is significant the technique you work. It will make life a complete lot that is complete for you personally separately. Rapidly and just install this program you need as well as right away at all essays which can be you’ll composing on Windows and utilize that is making of USB. The WinToFlash does the working job that is working free for you.

WinToFlash Professional 1.12.0000 Portable Helps you pull throughout the articles regarding the Windows XP, Windows 2003, Windows Vista, Windows 2008, the Windows 7, Windows 8 installation disk and prep the USB drive to be a replacement that is bootable any drive that is optical that is mainly with reference to you can install your Windows from the flash drive or the card, HDD, etc. to your netbook or computer.
Key Features:

Pull the articles associated with Windows XP/7/2003/Vista/2008/8 install disc and prep the USB drive showing into an upgraded that is the bootable.
Support all editions of Windows. Home, Media Center, expert, Ultimate, etc.
Windows 32 support and bit that is 64-bit is complete.
Rub a USB news (destroy all data on it), Transfer a Recovery CD or even an OS that is tiny predicated on Windows XP/2003, WinPE centered on Windows Vista/2008/7/8) to a USB drive.
Create a USB drive with crisis boot loader for Windows 2000/XP/2003. Create the USB drive with Windows XP/2003 healing Console.
Transfer MS-DOS to a USB drive. Structure USB drive to FAT16 or FAT32.
Fine tune any choice of partitions dining table. Find the tune any choice of FAT file system for better compatibility.
Select boot the loader for a USB drive, like GRUB or Standard one.
Produce the solution file for Windows Setup.
Include quantity that is clearly a username that is etc. that is serial.
Pick partition type – CHS or LBA for better compatibility with motherboards that are few.
Windows transfer that is setup tune that is ok.
Fix the some Windows Setup problems, like 0x6B BSOD.
Check USB drive for any file system errors following the Windows transfer procedure that initiated.
AntiSMS capacity to fix boot blockers (deliver SMS to the number/buy that is quick to unlock your personal computer problem) or viruses.
Transfer pages help to keep your transfer options and load it whenever you’d like.
WinToFlash is the application that is compact carry that is you’ll with you for a computer device that is portable utilize on any computer.
Step-By-Step log file.
Windows number that is serial in profile utilizing the password.
Updates reminder.
A wizard with just two alternatives for quick Windows transfer that is setup.
The natural to utilize screen this is the classic like the backup utility.
Now includes WinToFlash that is free Suggestor.
Multi-language
]]>
WetAndPuffy 17 10 20 Charlotte Sartre Punk Pussy Play XXX 480p MP4-TK http://glodls.to/torrent.php?id=2886390 http://glodls.to/torrent.php?id=2886390 Fri, 20 Oct 2017 06:23:19 +0100 Adult XXX
[b]Screenshots:[/b]

[url]http://imagerar.com/imgs-59e9965940b74.html[/url]

[url]http://imagerar.com/imgs-59e996593a596.html[/url]

[url]http://imagerar.com/imgs-59e996591f558.html[/url]

[url]http://imagerar.com/imgs-59e9961f7d187.html[/url]

File Size : 202 MiB
Duration : 24mn 33s
Video : h264, yuv420p, 854x480p, 1024 Kbps
Audio : aac , 2 ch, stereo , 128 Kbps ]]>
[LetsTryAnal] Katy Jayne - Backdoor Sex For Backstage Pass (24 10 2017) rq mp4 http://glodls.to/torrent.php?id=2886388 http://glodls.to/torrent.php?id=2886388 Fri, 20 Oct 2017 06:22:03 +0100 Adult XXX Audio: aac, 48000 Hz, 2 channels, s16, 127 kb/s (und)
Video: h264, yuv420p, 854x480, 1009 kb/s, 23,98 fps(r) (und)

http://www.pixsense.net/site/v/3267283#51&3267283
]]>
Katy Jayne - Backdoor Sex For Backstage Pass http://glodls.to/torrent.php?id=2886387 http://glodls.to/torrent.php?id=2886387 Fri, 20 Oct 2017 06:21:19 +0100 Adult XXX
[b]Date[/b]: 20.10.2017
[b]Cast[/b]: Katy Jayne
[b]Genre[/b]: anal, pov, couples fantasies, sex, handjob, titty fuck, doggystyle
[b]Name[/b]: Backdoor Sex For Backstage Pass


[b]Video[/b]: 860x480 (16:9), 29.970 fps
[b]Audio[/b]: AAC, 128 Kbps, 2 ch, 48 KHz
[b]Format[/b]: mp4
[b]Duration[/b]: 00:44:29
]]>
Zortam Mp3 Media Studio Pro 22 80 + Keygen http://glodls.to/torrent.php?id=2886386 http://glodls.to/torrent.php?id=2886386 Fri, 20 Oct 2017 06:21:16 +0100 Apps

Zortam Mp3 Media Studio is all-in-one Mp3 application that contains Mp3 ID3 Tag Organizer for searching and cataloguing Mp3 files into Mp3 library, editing ID3v1 and ID3v2.4 tags (ID3 Tag Editor-Mp3 Tag Editor), CD Ripper with album cover art/lyric support that uses CDDB (Internet Compact Disc Database) and automatically writes ID3v1 and ID3v2.4 tags.


FEATURES -
CD Ripper downloads album cover arts and lyrics from the interenet as you rip your CD (CD Ripper with lyric/cover art support), Mp3 Normalizer with custom volume level allows normalization of your Mp3's (Batch Mp3 Normalizer), search for song lyric from the internet (Batch Lyric Finder), search for album cover (album) arts (pictures) from the internet (Batch Cover Finder), batch lyrics and cover art finder from the internet (Batch Lyric-Cover Finder). Create lyric book in html format (cover pictures are included) from ID3v2 tags (Lyric Book), convert Wav to Mp3 files and Mp3 to Wav files (Wav/Mp3 Converter), manage M3u playlists (Playlist Manager), rename files using ID3 tags (Mp3 Renamer), search for duplicate Mp3 files, (Search Duplicate Mp3's). Play Mp3's using your favorite Mp3 player, add karaoke (Kar) and midi (Mid) files directly to ID3 tag (Karaoke Manager), and keep them together in Mp3 file and play either Mp3 or Kar file from the single Mp3 file.

Zortam Mp3 Media Studio gives you:
Auto tag your Mp3 music collection using the Zortam Music Internet Database (ZMLIMD)
Mp3 Tagger and MP3 Manager
Zortam Mp3 Player with cover arts and lyrics support
Organize Mp3 music and edit tags in your audio library with a powerful interface
ID3 Tag Editor (Mp3 Tagger) with separate views for ID3v1 and ID3v2.4 Tags
Download song lyric and download cover arts (Album covers) from the Zortam Music Interent Database using batch processing - iPod and iTunes ready
Normalize your Mp3's with Volume Normalizer and set custom volume in dB
Rip your CD with CD Ripper and tag your songs in one single step with cover arts(artworks) and lyrics
Batch Wav to Mp3 converter and vice versa
Burn Audio or Mp3 CD
Print HTML Lyrics book width cover arts
Powerful drag & drop playlist manager
Write ID3 Tags from filename
Delete ID3 Tags, delete cover arts, delete lyrics (ID3 Tag Remover)
Search for duplicate Mp3's
Batch file rename using information from ID3 tags(Mp3 Renamer)
Write ID3 tags using information from filename
Add karaoke and midi files directly to ID3 tags
All options are supporting batch processing
Use mp3 tag lookup using Zortam Music Internet Database for auto tagging
Plus much more ... ]]>
StepMomLessons 17 10 20 Lilu4u And Nesty Volcanic Eruptions XXX 480p MP4-TK http://glodls.to/torrent.php?id=2886384 http://glodls.to/torrent.php?id=2886384 Fri, 20 Oct 2017 06:16:32 +0100 Adult XXX
[b]Screenshots:[/b]

[url]http://imagerar.com/imgs-59e994c2a2e0b.html[/url]

[url]http://imagerar.com/imgs-59e994c29bcd4.html[/url]

[url]http://imagerar.com/imgs-59e994c2959d6.html[/url]

[url]http://imagerar.com/imgs-59e9940760c84.html[/url]

File Size : 232 MiB
Duration : 28mn 13s
Video : h264, yuv420p, 854x480p, 1024 Kbps
Audio : aac , 2 ch, stereo , 128 Kbps ]]>
MomKnowsBest 17 10 20 Chanel Preston And Giselle Palmer Kiss And Makeup XXX 480p MP4-TK http://glodls.to/torrent.php?id=2886383 http://glodls.to/torrent.php?id=2886383 Fri, 20 Oct 2017 06:16:02 +0100 Adult XXX
[b]Screenshots:[/b]

[url]http://imagerar.com/imgs-59e994a406ab6.html[/url]

[url]http://imagerar.com/imgs-59e994a3f3c6d.html[/url]

[url]http://imagerar.com/imgs-59e994a3ec8c4.html[/url]

[url]http://imagerar.com/imgs-59e9945222f55.html[/url]

File Size : 280 MiB
Duration : 33mn 38s
Video : h264, yuv420p, 854x480p, 1024 Kbps
Audio : aac , 2 ch, stereo , 128 Kbps ]]>
[18+ Korean] Back affair (2015) 600MB WEB-DL HD RIP http://glodls.to/torrent.php?id=2886382 http://glodls.to/torrent.php?id=2886382 Fri, 20 Oct 2017 06:09:35 +0100 Movies
[img]http://movies2day.org/public/files/flim/120x160/1502638671-back-affair-2015-full-korean-18-english-subtitle-watch-online-free.jpg[/img]

[img]http://www.pixsense.net/themes/latest/ssd/small/811/small-[18+Korean]Backaffair2015600MBWEB-DLHDRIP.mp4_snapshot_00.45.16_[2017.10.20_11.34.31].jpg[/img]

[code]General
Complete name : Back affair (2015).mp4
Format : MPEG-4
Format profile : Base Media
Codec ID : isom (isom/iso2/avc1/mp41)
File size : 592 MiB
Duration : 1 h 0 min
Overall bit rate : 1 374 kb/s
Writing application : Lavf57.56.101
IsTruncated : Yes

Video
ID : 1
Format : AVC
Format/Info : Advanced Video Codec
Format profile : High@L3.1
Format settings, CABAC : Yes
Format settings, ReFrames : 4 frames
Codec ID : avc1
Codec ID/Info : Advanced Video Coding
Duration : 1 h 0 min
Bit rate : 1 280 kb/s
Width : 1 280 pixels
Height : 720 pixels
Display aspect ratio : 16:9
Frame rate mode : Constant
Frame rate : 29.970 (30000/1001) FPS
Color space : YUV
Chroma subsampling : 4:2:0
Bit depth : 8 bits
Scan type : Progressive
Bits/(Pixel*Frame) : 0.046
Stream size : 548 MiB (93%)
Writing library : x264 core 142 r2491 24e4fed
Color range : Limited
Color primaries : BT.709
Transfer characteristics : BT.709
Matrix coefficients : BT.709

Audio
ID : 2
Format : AAC
Format/Info : Advanced Audio Codec
Format profile : LC
Codec ID : 40
Duration : 1 h 0 min
Bit rate mode : Constant
Bit rate : 128 kb/s
Channel(s) : 2 channels
Channel positions : Front: L R
Sampling rate : 44.1 kHz
Frame rate : 43.066 FPS (1024 spf)
Compression mode : Lossy
Stream size : 55.1 MiB (9%)
Default : Yes
Alternate group : 1[/code]

[color=red][b]Screen Shot & Thumbnails:-[/b][/color]

[URL]https://www.pixsense.net/site/v/3267272#811&3267272[/URL]
[URL]https://www.pixsense.net/site/v/3267273#811&3267273[/URL]
[URL]https://www.pixsense.net/site/v/3267274#811&3267274[/URL]
[URL]https://www.pixsense.net/site/v/3267275#811&3267275[/URL]
[URL]https://www.pixsense.net/site/v/3267276#811&3267276[/URL]
[URL]https://www.pixsense.net/site/v/3267277#811&3267277[/URL]
[URL]https://www.pixsense.net/site/v/3267278#811&3267278[/URL]

[color=red][b]..........Please Seed After Download ............[/b][/color][/center]

]]>
Armed.Response.2017.720p.BluRay.x264-BRMP http://glodls.to/torrent.php?id=2886381 http://glodls.to/torrent.php?id=2886381 Fri, 20 Oct 2017 06:08:27 +0100 Movies
[b]ImDb: [URL]http://www.imdb.com/title/tt4557208[/URL][/b]

[url=https://www.sparrowpics.com/image/kbFon][img]https://www.sparrowpics.com/images/2017/07/04/kbFon.png[/img][/url]

[b]Complete name : armed.response.2017.720p.bluray.x264-brmp.mkv
Format : Matroska
Format version : Version 2
File size : 4.37 GiB
Duration : 1 h 33 min
Overall bit rate : 6 666 kb/s
Encoded date : UTC 2017-10-20 03:07:37
Writing application : mkvmerge v17.0.0 ('Be Ur Friend') 64-bit
Writing library : libebml v1.3.5 + libmatroska v1.4.8

Video
ID : 1
Format : AVC
Format/Info : Advanced Video Codec
Format profile : High@L4.1
Format settings, CABAC : Yes
Format settings, ReFrames : 5 frames
Codec ID : V_MPEG4/ISO/AVC
Duration : 1 h 33 min
Bit rate : 5 159 kb/s
Width : 1 280 pixels
Height : 688 pixels
Display aspect ratio : 1.85:1
Frame rate mode : Constant
Frame rate : 23.976 (24000/1001) FPS
Color space : YUV
Chroma subsampling : 4:2:0
Bit depth : 8 bits
Scan type : Progressive
Bits/(Pixel*Frame) : 0.244
Stream size : 3.38 GiB (77%)
Writing library : x264 core 152 r2851 ba24899
Encoding settings : cabac=1 / ref=5 / deblock=1:0:0 / analyse=0x3:0x133 / me=umh / subme=7 / psy=1 / psy_rd=1.00:0.00 / mixed_ref=1 / me_range=16 / chroma_me=1 / trellis=1 / 8x8dct=1 / cqm=0 / deadzone=21,11 / fast_pskip=0 / chroma_qp_offset=-2 / threads=18 / lookahead_threads=3 / sliced_threads=0 / nr=0 / decimate=1 / interlaced=0 / bluray_compat=0 / constrained_intra=0 / bframes=3 / b_pyramid=2 / b_adapt=1 / b_bias=0 / direct=1 / weightb=1 / open_gop=0 / weightp=2 / keyint=240 / keyint_min=23 / scenecut=40 / intra_refresh=0 / rc_lookahead=40 / rc=2pass / mbtree=1 / bitrate=5159 / ratetol=1.0 / qcomp=0.60 / qpmin=10 / qpmax=51 / qpstep=4 / cplxblur=20.0 / qblur=0.5 / ip_ratio=1.40 / aq=1:1.00
Default : Yes
Forced : No

Audio
ID : 2
Format : DTS
Format/Info : Digital Theater Systems
Mode : 16
Format settings, Endianness : Big
Codec ID : A_DTS
Duration : 1 h 33 min
Bit rate mode : Constant
Bit rate : 1 509 kb/s
Channel(s) : 6 channels
Channel positions : Front: L C R, Side: L R, LFE
Sampling rate : 48.0 kHz
Frame rate : 93.750 FPS (512 spf)
Bit depth : 24 bits
Compression mode : Lossy
Stream size : 1 013 MiB (23%)
Language : English
Default : Yes
Forced : No[/b]

[url=https://www.sparrowpics.com/image/kbJ5y][img]https://www.sparrowpics.com/images/2017/07/04/kbJ5y.png[/img][/url]

[URL=https://www.sparrowpics.com/image/2VdjB][IMG]https://www.sparrowpics.com/images/2017/10/20/2VdjB.th.jpg[/IMG][/URL]

[URL=https://www.sparrowpics.com/image/2VyJe][b]Click To View Screenshot[/b][/URL]

[URL=https://www.sparrowpics.com/image/2VzAs][b]Click To View Screenshot[/b][/URL]

[URL=https://www.sparrowpics.com/image/2VX8f][b]Click To View Screenshot[/b][/URL][/center] ]]>
[MeetSuckAndFuck] Erika Kortni - Two Big Cocks for a Sexy Stranger (19 10 2017) rq mp4 http://glodls.to/torrent.php?id=2886380 http://glodls.to/torrent.php?id=2886380 Fri, 20 Oct 2017 06:06:29 +0100 Adult XXX Audio: aac, 44100 Hz, stereo, s16, 64 kb/s (und)
Video: h264, yuv420p, 768x432, 663 kb/s, 29,97 fps(r) (und)

http://imgjazz.com/img-59e992231473b.html

]]>