GloDLS.to - Download Movies, TV, Games and Other Torrents Free RSS 2.0enGloDLS.to - Download Movies, TV, Games and Other Torrents FreeGloDLS.to - Download Movies, TV, Games and Other Torrents Free RSS Feedhttp://glodls.toCopyright GloDLS.to - Download Movies, TV, Games and Other Torrents FreeThu, 17 Aug 2017 04:39:16 +0100 [HouseOfTaboo/DDFNetwork]Blanche Bradburry, Mea Melone, Wendy Moon - 3 Vixens Fuck 1 Guy Hardcore BDSM Group Sex Delight(NEW***17 08 2017) http://glodls.to/torrent.php?id=2712708 http://glodls.to/torrent.php?id=2712708 Thu, 17 Aug 2017 03:32:09 +0100 Adult XXX [center][URL=http://damimage.com/img-59950c798b774.html][IMG]http://damimage.com/upload/small/2017/08/17/59950c798b703.jpg[/IMG][/URL]
[size=4]

Blanche Bradburry, Mea Melone, Wendy Moon - 3 Vixens Fuck 1 Guy: Hardcore BDSM Group Sex Delight
Category: All sex, Anal, BDSM, Bondage, Blowjob, Big Tits, Natural tits, Hardcore, Pornstar, Blonde, Brunette
File size: 797 MiB
Duration: 23mn 44s

[b]SCREENS:[/b]

[url]http://damimage.com/img-59950c836f0c8.html[/url]
[url]https://img.yt/img-59950cc678fa1.html[/url]

[b]SHOOT:[/b]
[url]http://imageteam.org/img-59950c9116298.html[/url]
[/size]
[/center] ]]>
The.Daily.Show.2017.08.01.Al.Gore.HDTV.x264-CROOKS[ettv] http://glodls.to/torrent.php?id=2712707 http://glodls.to/torrent.php?id=2712707 Thu, 17 Aug 2017 03:29:20 +0100 TV Et TV Shows


The.Daily.Show.2017.08.01.Al.Gore.HDTV.x264-CROOKS


[Format]: Matroska
[Duration]: 21mn 29s
[Resolution]: 720 x 404 pixels
[Display aspect ratio]: 16:9
[Frame rate mode]: Constant
[Frame rate]: 60.000 fps
[Original frame rate]: 59.940 fps


[color=green][b]#ettv -> To avoid fakes, ALWAYS check that the torrent was added by ettv[/b][/color]




[color=green][b]To keep us going Support us by donating Bitcoin: 3MDamEmgKepqagtQe9eEdQ3NCrWEWjhoL5[/b][/color]

[b]Screens...[/b]

[url]https://extraimage.net/image/T2ER[/url]
[url][/url]
[url][/url]
[url][/url]
[url][/url]
[url][/url]
]]>
Younger.S04E08.HDTV.x264-KILLERS[ettv] http://glodls.to/torrent.php?id=2712706 http://glodls.to/torrent.php?id=2712706 Thu, 17 Aug 2017 03:27:18 +0100 TV Et TV Shows


Younger.S04E08.HDTV.x264-KILLERS


[Format]: Matroska
[Duration]: 25mn 58s
[Resolution]: 720 x 404 pixels
[Display aspect ratio]: 16:9
[Frame rate mode]: Constant
[Frame rate]: 23.976 fps


[color=green][b]#ettv -> To avoid fakes, ALWAYS check that the torrent was added by ettv[/b][/color]




[color=green][b]To keep us going Support us by donating Bitcoin: 3MDamEmgKepqagtQe9eEdQ3NCrWEWjhoL5[/b][/color]

[b]Screens...[/b]

[url]https://extraimage.net/image/T2EL[/url]
[url][/url]
[url][/url]
[url][/url]
[url][/url]
[url][/url]
]]>
Younger.S04E08.HDTV.x264-KILLERS http://glodls.to/torrent.php?id=2712705 http://glodls.to/torrent.php?id=2712705 Thu, 17 Aug 2017 03:25:30 +0100 TV
[url=https://www.sparrowpics.com/image/kbFon][img]https://www.sparrowpics.com/images/2017/07/04/kbFon.png[/img][/url]

[b]Complete name : Younger.S04E08.HDTV.x264-KILLERS.mkv
Format : Matroska
Format version : Version 4 / Version 2
File size : 179 MiB
Duration : 25 min 58 s
Overall bit rate : 964 kb/s
Encoded date : UTC 2017-08-17 03:22:14
Writing application : mkvmerge v9.0.1 ('Obstacles') 64bit
Writing library : libebml v1.3.3 + libmatroska v1.4.4

Video
ID : 1
Format : AVC
Format/Info : Advanced Video Codec
Format profile : High@L3.1
Format settings, CABAC : Yes
Format settings, ReFrames : 5 frames
Codec ID : V_MPEG4/ISO/AVC
Duration : 25 min 58 s
Width : 720 pixels
Height : 404 pixels
Display aspect ratio : 16:9
Frame rate mode : Constant
Frame rate : 23.976 (24000/1001) FPS
Color space : YUV
Chroma subsampling : 4:2:0
Bit depth : 8 bits
Scan type : Progressive
Writing library : x264 core 150 r2833 df79067
Encoding settings : cabac=1 / ref=5 / deblock=1:0:0 / analyse=0x3:0x113 / me=hex / subme=8 / psy=1 / psy_rd=1.00:0.00 / mixed_ref=1 / me_range=16 / chroma_me=1 / trellis=2 / 8x8dct=1 / cqm=0 / deadzone=21,11 / fast_pskip=1 / chroma_qp_offset=-2 / threads=13 / lookahead_threads=2 / sliced_threads=0 / nr=0 / decimate=1 / interlaced=0 / bluray_compat=0 / constrained_intra=0 / bframes=3 / b_pyramid=2 / b_adapt=1 / b_bias=0 / direct=3 / weightb=1 / open_gop=0 / weightp=2 / keyint=250 / keyint_min=23 / scenecut=40 / intra_refresh=0 / rc_lookahead=50 / rc=crf / mbtree=1 / crf=19.0 / qcomp=0.60 / qpmin=0 / qpmax=69 / qpstep=4 / ip_ratio=1.40 / aq=1:1.00
Default : Yes
Forced : No
Color range : Limited
Matrix coefficients : BT.709

Audio
ID : 2
Format : AAC
Format/Info : Advanced Audio Codec
Format profile : LC
Codec ID : A_AAC
Duration : 25 min 58 s
Channel(s) : 2 channels
Channel positions : Front: L R
Sampling rate : 48.0 kHz
Frame rate : 46.875 FPS (1024 spf)
Compression mode : Lossy
Delay relative to video : 20 ms
Default : Yes
Forced : No[/b]

[url=https://www.sparrowpics.com/image/kbJ5y][img]https://www.sparrowpics.com/images/2017/07/04/kbJ5y.png[/img][/url]

[URL=https://tv.sparrowpics.com/image/IdamX][IMG]https://tv.sparrowpics.com/images/2017/08/17/IdamX.th.jpg[/IMG][/URL]

[URL=https://tv.sparrowpics.com/image/IdgRU][b]Click To View Screenshot[/b][/URL]

[URL=https://tv.sparrowpics.com/image/Id448][b]Click To View Screenshot[/b][/URL]

[URL=https://tv.sparrowpics.com/image/IdDsO][b]Click To View Screenshot[/b][/URL][/center] ]]>
Younger.S04E08.720p.HDTV.x264-KILLERS[ettv] http://glodls.to/torrent.php?id=2712704 http://glodls.to/torrent.php?id=2712704 Thu, 17 Aug 2017 03:25:21 +0100 TV Et High-Definition TV Shows


Younger.S04E08.720p.HDTV.x264-KILLERS


[Format]: Matroska
[Duration]: 25mn 58s
[Resolution]: 1 280 x 720 pixels
[Display aspect ratio]: 16:9
[Frame rate mode]: Constant
[Frame rate]: 23.976 fps


[color=green][b]#EtHD -> To avoid fakes, ALWAYS check that the torrent was added by EtHD[/b][/color]




[color=green][b]To keep us going Support us by donating Bitcoin: 3MDamEmgKepqagtQe9eEdQ3NCrWEWjhoL5[/b][/color]

[b]Screens...[/b]

[url]https://extraimage.net/image/T2EN[/url]
[url]https://extraimage.net/image/T2ET[/url]
[url]https://extraimage.net/image/T2Ej[/url]
[url]https://extraimage.net/image/T2En[/url]
[url][/url]
[url][/url]
]]>
Younger.S04E08.720p.HDTV.x264-KILLERS http://glodls.to/torrent.php?id=2712703 http://glodls.to/torrent.php?id=2712703 Thu, 17 Aug 2017 03:24:37 +0100 TV
[url=https://www.sparrowpics.com/image/kbFon][img]https://www.sparrowpics.com/images/2017/07/04/kbFon.png[/img][/url]

[b]Complete name : Younger.S04E08.720p.HDTV.x264-KILLERS.mkv
Format : Matroska
Format version : Version 4 / Version 2
File size : 600 MiB
Duration : 25 min 58 s
Overall bit rate : 3 228 kb/s
Encoded date : UTC 2017-08-17 03:18:21
Writing application : mkvmerge v9.0.1 ('Obstacles') 64bit
Writing library : libebml v1.3.3 + libmatroska v1.4.4

Video
ID : 1
Format : AVC
Format/Info : Advanced Video Codec
Format profile : High@L4.1
Format settings, CABAC : Yes
Format settings, ReFrames : 5 frames
Codec ID : V_MPEG4/ISO/AVC
Duration : 25 min 58 s
Bit rate : 2 780 kb/s
Width : 1 280 pixels
Height : 720 pixels
Display aspect ratio : 16:9
Frame rate mode : Constant
Frame rate : 23.976 (24000/1001) FPS
Color space : YUV
Chroma subsampling : 4:2:0
Bit depth : 8 bits
Scan type : Progressive
Bits/(Pixel*Frame) : 0.126
Stream size : 517 MiB (86%)
Writing library : x264 core 150 r2833 df79067
Encoding settings : cabac=1 / ref=5 / deblock=1:0:0 / analyse=0x3:0x113 / me=hex / subme=8 / psy=1 / psy_rd=1.00:0.00 / mixed_ref=1 / me_range=16 / chroma_me=1 / trellis=2 / 8x8dct=1 / cqm=0 / deadzone=21,11 / fast_pskip=1 / chroma_qp_offset=-2 / threads=22 / lookahead_threads=3 / sliced_threads=0 / nr=0 / decimate=1 / interlaced=0 / bluray_compat=0 / constrained_intra=0 / bframes=3 / b_pyramid=2 / b_adapt=1 / b_bias=0 / direct=3 / weightb=1 / open_gop=0 / weightp=2 / keyint=250 / keyint_min=23 / scenecut=40 / intra_refresh=0 / rc_lookahead=50 / rc=crf / mbtree=1 / crf=18.0 / qcomp=0.60 / qpmin=0 / qpmax=69 / qpstep=4 / ip_ratio=1.40 / aq=1:1.00
Default : Yes
Forced : No
Color range : Limited
Matrix coefficients : BT.709

Audio
ID : 2
Format : AC-3
Format/Info : Audio Coding 3
Format settings, Endianness : Big
Codec ID : A_AC3
Duration : 25 min 58 s
Bit rate mode : Constant
Bit rate : 384 kb/s
Channel(s) : 2 channels
Channel positions : Front: L R
Sampling rate : 48.0 kHz
Frame rate : 31.250 FPS (1536 spf)
Bit depth : 16 bits
Compression mode : Lossy
Stream size : 71.4 MiB (12%)
Service kind : Complete Main
Default : Yes
Forced : No[/b]

[url=https://www.sparrowpics.com/image/kbJ5y][img]https://www.sparrowpics.com/images/2017/07/04/kbJ5y.png[/img][/url]

[URL=https://tv.sparrowpics.com/image/IEMXT][IMG]https://tv.sparrowpics.com/images/2017/08/17/IEMXT.th.jpg[/IMG][/URL]

[URL=https://tv.sparrowpics.com/image/IEx9b][b]Click To View Screenshot[/b][/URL]

[URL=https://tv.sparrowpics.com/image/Id8y4][b]Click To View Screenshot[/b][/URL]

[URL=https://tv.sparrowpics.com/image/Id9fd][b]Click To View Screenshot[/b][/URL][/center] ]]>
[WowGirls[Lana Ray - Kindness From A Friend(NEW***17 08 2017) http://glodls.to/torrent.php?id=2712701 http://glodls.to/torrent.php?id=2712701 Thu, 17 Aug 2017 03:18:35 +0100 Adult XXX [center][URL=http://imageteam.org/img-59950962a2f8d.html][IMG]http://imageteam.org/upload/small/2017/08/17/59950962a2f54.jpg[/IMG][/URL]
[size=4]

Lana Ray - Kindness From A Friend
Category: All Sex
File size: 212Mb
Duration: 0:24:35

[b]SCREENS:[/b]

[url]http://imageteam.org/img-5995096d6407e.html[/url]
[url]https://img.yt/img-5995097d2c1fb.html[/url]

[b]SHOOT:[/b]
[url]http://damimage.com/img-59950aa09f462.html[/url]
[/size]
[/center] ]]>
Internet Download Manager (IDM) 6 28 Build 17 - Repack KpoJIuK - ssec life http://glodls.to/torrent.php?id=2712700 http://glodls.to/torrent.php?id=2712700 Thu, 17 Aug 2017 03:17:36 +0100 Apps
[url=http://ssec.life/i/image/jx5i][img]http://ssec.life/i/images/2017/08/17/e25d330623645c7f3f4ae9d3d3b8b6fb.png[/img][/url]

Description:

Internet Download Manager Added Windows 10 compatibility. Fixed compatibility problems with different browsers including Internet Explorer 11, all Mozilla Firefox versions up to Mozilla Firefox Aurora, Google Chrome. Improved FLV grabber to save videos from web players on web pages, Google Video, MySpace TV, and other popular sites

New! New discounts. Get Internet Download Manager for a low price now!
Internet Download Manager (IDM) is a tool to increase download speeds by up to 5 times, resume and schedule downloads. Comprehensive error recovery and resume capability will restart broken or interrupted downloads due to lost connections, network problems, computer shutdowns, or unexpected power outages. Simple graphic user interface makes IDM user friendly and easy to use.Internet Download Manager has a smart download logic accelerator that features intelligent dynamic file segmentation and safe multipart downloading technology to accelerate your downloads. Unlike other download managers and accelerators Internet Download Manager segments downloaded files dynamically during download process and reuses available connections without additional connect and login stages to achieve best acceleration performance.

Internet Download Manager supports proxy servers, ftp and http protocols, firewalls, redirects, cookies, authorization, MP3 audio and MPEG video content processing. IDM integrates seamlessly into Microsoft Internet Explorer, Netscape, MSN Explorer, AOL, Opera, Mozilla, Mozilla Firefox, Mozilla Firebird, Avant Browser, MyIE2, and all other popular browsers to automatically handle your downloads. You can also drag and drop files, or use Internet Download Manager from command line. Internet Download Manager can dial your modem at the set time, download the files you want, then hang up or even shut down your computer when it's done.

Other features include multilingual support, zip preview, download categories, scheduler pro, sounds on different events, HTTPS support, queue processor, html help and tutorial, enhanced virus protection on download completion, progressive downloading with quotas (useful for connections that use some kind of fair access policy or FAP like Direcway, Direct PC, Hughes, etc.), built-in download accelerator, and many others.

Version 6 adds Windows 10 compatibility, adds IDM download panel for web-players that can be used to download flash videos from sites like MySpaceTV, and others. It also features complete Windows 8.1 (Windows 8, Windows 7 and Vista) support, video page grabber, redeveloped scheduler, and MMS protocol support. The new version also adds improved integration for IE 11 and IE based browsers, redesigned and enhanced download engine, the unique advanced integration into all latest browsers, improved toolbar, and a wealth of other improvements and new features.

What's new in version 6.28 Build 16

(Released: Aug 05, 2017)

- Added compatibility with Windows 10 Preview build 16257
- Fixed bugs

Instructions:

1. Unpack and install
2. Uncheck unwanted settings (Hi.ru) and select language
3. Done.

Visit Us
======================================
Web- http://ssec.life/
Torrent- http://ssec.life/new
imageHost- http://ssec.life/i ]]>
Bizarre.Foods.S18E03.Magnificent.Mississippi.River.HDTV.x264-CRiMSON[ettv] http://glodls.to/torrent.php?id=2712699 http://glodls.to/torrent.php?id=2712699 Thu, 17 Aug 2017 03:17:32 +0100 TV Et TV Shows


Bizarre.Foods.S18E03.Magnificent.Mississippi.River.HDTV.x264-CRiMSON


[Format]: Matroska
[Duration]: 41mn 58s
[Resolution]: 720 x 404 pixels
[Display aspect ratio]: 16:9
[Frame rate mode]: Constant
[Frame rate]: 29.970 fps


[color=green][b]#ettv -> To avoid fakes, ALWAYS check that the torrent was added by ettv[/b][/color]




[color=green][b]To keep us going Support us by donating Bitcoin: 3MDamEmgKepqagtQe9eEdQ3NCrWEWjhoL5[/b][/color]

[b]Screens...[/b]

[url]https://extraimage.net/image/T2Ew[/url]
[url][/url]
[url][/url]
[url][/url]
[url][/url]
[url][/url]
]]>
[GangbangPOV]Anna De Ville Gangbang POV(NEW***17 08 2017) http://glodls.to/torrent.php?id=2712698 http://glodls.to/torrent.php?id=2712698 Thu, 17 Aug 2017 03:13:31 +0100 Adult XXX [center][URL=http://imagedecode.com/img-5995084b3c6fb.html][IMG]http://imagedecode.com/upload/small/2017/08/17/5995084b3c6c1.jpg[/IMG][/URL]
[size=4]
Anna De Ville: Gangbang POV
Category: Gangbang
File size: 567MB
Duration: 53:03

[b]SCREENS:[/b]

[url]http://imagedecode.com/img-5995085a00e31.html[/url]
[url]https://img.yt/img-5995086b4612d.html[/url]

[b]SHOOT:[/b]
[url]http://imageteam.org/img-5995087bc47ac.html[/url]
[/size]
[/center] ]]>
The.Sinner.S01E03.HDTV.x264-SVA http://glodls.to/torrent.php?id=2712697 http://glodls.to/torrent.php?id=2712697 Thu, 17 Aug 2017 03:10:19 +0100 TV
[url=https://www.sparrowpics.com/image/kbFon][img]https://www.sparrowpics.com/images/2017/07/04/kbFon.png[/img][/url]

[b]Complete name : The.Sinner.S01E03.HDTV.x264-SVA.mkv
Format : Matroska
Format version : Version 4 / Version 2
File size : 200 MiB
Duration : 41 min 30 s
Overall bit rate : 675 kb/s
Encoded date : UTC 2017-08-17 03:01:44
Writing application : FastLE v3.0.0 - AVS
Writing library : libx264 + libebml + libmatroska + libfastrar

Video
ID : 1
Format : AVC
Format/Info : Advanced Video Codec
Format profile : High@L3.1
Format settings, CABAC : Yes
Format settings, ReFrames : 5 frames
Codec ID : V_MPEG4/ISO/AVC
Duration : 41 min 30 s
Width : 720 pixels
Height : 404 pixels
Display aspect ratio : 16:9
Frame rate mode : Constant
Frame rate : 23.976 (24000/1001) FPS
Color space : YUV
Chroma subsampling : 4:2:0
Bit depth : 8 bits
Scan type : Progressive
Writing library : x264 core 150 r2833 df79067
Encoding settings : cabac=1 / ref=5 / deblock=1:0:0 / analyse=0x3:0x113 / me=hex / subme=8 / psy=1 / psy_rd=1.00:0.00 / mixed_ref=1 / me_range=16 / chroma_me=1 / trellis=2 / 8x8dct=1 / cqm=0 / deadzone=21,11 / fast_pskip=1 / chroma_qp_offset=-2 / threads=13 / lookahead_threads=2 / sliced_threads=0 / nr=0 / decimate=1 / interlaced=0 / bluray_compat=0 / constrained_intra=0 / bframes=3 / b_pyramid=2 / b_adapt=1 / b_bias=0 / direct=3 / weightb=1 / open_gop=0 / weightp=2 / keyint=250 / keyint_min=23 / scenecut=40 / intra_refresh=0 / rc_lookahead=50 / rc=crf / mbtree=1 / crf=19.0 / qcomp=0.60 / qpmin=0 / qpmax=69 / qpstep=4 / ip_ratio=1.40 / aq=1:1.00
Default : Yes
Forced : No
Color range : Limited
Matrix coefficients : BT.709

Audio
ID : 2
Format : AAC
Format/Info : Advanced Audio Codec
Format profile : LC
Codec ID : A_AAC
Duration : 41 min 30 s
Channel(s) : 2 channels
Channel positions : Front: L R
Sampling rate : 48.0 kHz
Frame rate : 46.875 FPS (1024 spf)
Compression mode : Lossy
Default : Yes
Forced : No[/b]

[url=https://www.sparrowpics.com/image/kbJ5y][img]https://www.sparrowpics.com/images/2017/07/04/kbJ5y.png[/img][/url]

[URL=https://tv.sparrowpics.com/image/IEcSQ][IMG]https://tv.sparrowpics.com/images/2017/08/17/IEcSQ.th.jpg[/IMG][/URL]

[URL=https://tv.sparrowpics.com/image/IEPPi][b]Click To View Screenshot[/b][/URL]

[URL=https://tv.sparrowpics.com/image/IEfem][b]Click To View Screenshot[/b][/URL]

[URL=https://tv.sparrowpics.com/image/IEO7F][b]Click To View Screenshot[/b][/URL][/center] ]]>
The.Sinner.S01E03.720p.HDTV.x264-SVA http://glodls.to/torrent.php?id=2712696 http://glodls.to/torrent.php?id=2712696 Thu, 17 Aug 2017 03:10:16 +0100 TV
[url=https://www.sparrowpics.com/image/kbFon][img]https://www.sparrowpics.com/images/2017/07/04/kbFon.png[/img][/url]

[b]Complete name : The.Sinner.S01E03.720p.HDTV.x264-SVA.mkv
Format : Matroska
Format version : Version 4 / Version 2
File size : 778 MiB
Duration : 41 min 30 s
Overall bit rate : 2 622 kb/s
Encoded date : UTC 2017-08-17 02:03:48
Writing application : FastLE v3.0.0 - AVS
Writing library : libx264 + libebml + libmatroska + libfastrar

Video
ID : 1
Format : AVC
Format/Info : Advanced Video Codec
Format profile : High@L4.1
Format settings, CABAC : Yes
Format settings, ReFrames : 5 frames
Codec ID : V_MPEG4/ISO/AVC
Duration : 41 min 30 s
Bit rate : 2 186 kb/s
Width : 1 280 pixels
Height : 720 pixels
Display aspect ratio : 16:9
Frame rate mode : Constant
Frame rate : 23.976 (24000/1001) FPS
Color space : YUV
Chroma subsampling : 4:2:0
Bit depth : 8 bits
Scan type : Progressive
Bits/(Pixel*Frame) : 0.099
Stream size : 649 MiB (83%)
Writing library : x264 core 150 r2833 df79067
Encoding settings : cabac=1 / ref=5 / deblock=1:0:0 / analyse=0x3:0x113 / me=hex / subme=8 / psy=1 / psy_rd=1.00:0.00 / mixed_ref=1 / me_range=16 / chroma_me=1 / trellis=2 / 8x8dct=1 / cqm=0 / deadzone=21,11 / fast_pskip=1 / chroma_qp_offset=-2 / threads=22 / lookahead_threads=3 / sliced_threads=0 / nr=0 / decimate=1 / interlaced=0 / bluray_compat=0 / constrained_intra=0 / bframes=3 / b_pyramid=2 / b_adapt=1 / b_bias=0 / direct=3 / weightb=1 / open_gop=0 / weightp=2 / keyint=250 / keyint_min=23 / scenecut=40 / intra_refresh=0 / rc_lookahead=50 / rc=crf / mbtree=1 / crf=18.0 / qcomp=0.60 / qpmin=0 / qpmax=69 / qpstep=4 / ip_ratio=1.40 / aq=1:1.00
Default : Yes
Forced : No
Color range : Limited
Matrix coefficients : BT.709

Audio
ID : 2
Format : AC-3
Format/Info : Audio Coding 3
Format settings, Endianness : Big
Codec ID : A_AC3
Duration : 41 min 30 s
Bit rate mode : Constant
Bit rate : 384 kb/s
Channel(s) : 6 channels
Channel positions : Front: L C R, Side: L R, LFE
Sampling rate : 48.0 kHz
Frame rate : 31.250 FPS (1536 spf)
Bit depth : 16 bits
Compression mode : Lossy
Stream size : 114 MiB (15%)
Service kind : Complete Main
Default : Yes
Forced : No[/b]

[url=https://www.sparrowpics.com/image/kbJ5y][img]https://www.sparrowpics.com/images/2017/07/04/kbJ5y.png[/img][/url]

[URL=https://tv.sparrowpics.com/image/IERe3][IMG]https://tv.sparrowpics.com/images/2017/08/17/IERe3.th.jpg[/IMG][/URL]

[URL=https://tv.sparrowpics.com/image/IEZ7f][b]Click To View Screenshot[/b][/URL]

[URL=https://tv.sparrowpics.com/image/IEimr][b]Click To View Screenshot[/b][/URL]

[URL=https://tv.sparrowpics.com/image/IEjAe][b]Click To View Screenshot[/b][/URL][/center] ]]>
Blood.Drive.S01E10.HDTV.x264-SVA http://glodls.to/torrent.php?id=2712695 http://glodls.to/torrent.php?id=2712695 Thu, 17 Aug 2017 03:10:12 +0100 TV
[url=https://www.sparrowpics.com/image/kbFon][img]https://www.sparrowpics.com/images/2017/07/04/kbFon.png[/img][/url]

[b]Complete name : Blood.Drive.S01E10.HDTV.x264-SVA.mkv
Format : Matroska
Format version : Version 4 / Version 2
File size : 370 MiB
Duration : 42 min 30 s
Overall bit rate : 1 216 kb/s
Encoded date : UTC 2017-08-17 03:00:11
Writing application : FastLE v3.0.0 - AVS
Writing library : libx264 + libebml + libmatroska + libfastrar

Video
ID : 1
Format : AVC
Format/Info : Advanced Video Codec
Format profile : High@L3.1
Format settings, CABAC : Yes
Format settings, ReFrames : 5 frames
Codec ID : V_MPEG4/ISO/AVC
Duration : 42 min 30 s
Width : 720 pixels
Height : 404 pixels
Display aspect ratio : 16:9
Frame rate mode : Constant
Frame rate : 23.976 (24000/1001) FPS
Color space : YUV
Chroma subsampling : 4:2:0
Bit depth : 8 bits
Scan type : Progressive
Writing library : x264 core 152 r2851 ba24899
Encoding settings : cabac=1 / ref=5 / deblock=1:0:0 / analyse=0x3:0x113 / me=hex / subme=8 / psy=1 / psy_rd=1.00:0.00 / mixed_ref=1 / me_range=16 / chroma_me=1 / trellis=2 / 8x8dct=1 / cqm=0 / deadzone=21,11 / fast_pskip=1 / chroma_qp_offset=-2 / threads=13 / lookahead_threads=2 / sliced_threads=0 / nr=0 / decimate=1 / interlaced=0 / bluray_compat=0 / constrained_intra=0 / bframes=3 / b_pyramid=2 / b_adapt=1 / b_bias=0 / direct=3 / weightb=1 / open_gop=0 / weightp=2 / keyint=250 / keyint_min=23 / scenecut=40 / intra_refresh=0 / rc_lookahead=50 / rc=crf / mbtree=1 / crf=19.0 / qcomp=0.60 / qpmin=0 / qpmax=69 / qpstep=4 / ip_ratio=1.40 / aq=1:1.00
Default : Yes
Forced : No
Color range : Limited
Matrix coefficients : BT.709

Audio
ID : 2
Format : AAC
Format/Info : Advanced Audio Codec
Format profile : LC
Codec ID : A_AAC
Duration : 42 min 30 s
Channel(s) : 2 channels
Channel positions : Front: L R
Sampling rate : 48.0 kHz
Frame rate : 46.875 FPS (1024 spf)
Compression mode : Lossy
Default : Yes
Forced : No[/b]

[url=https://www.sparrowpics.com/image/kbJ5y][img]https://www.sparrowpics.com/images/2017/07/04/kbJ5y.png[/img][/url]

[URL=https://tv.sparrowpics.com/image/IE2lU][IMG]https://tv.sparrowpics.com/images/2017/08/17/IE2lU.th.jpg[/IMG][/URL]

[URL=https://tv.sparrowpics.com/image/IEVA8][b]Click To View Screenshot[/b][/URL]

[URL=https://tv.sparrowpics.com/image/IElgO][b]Click To View Screenshot[/b][/URL]

[URL=https://tv.sparrowpics.com/image/IEmLJ][b]Click To View Screenshot[/b][/URL][/center] ]]>
Blood.Drive.S01E10.720p.HDTV.x264-FLEET http://glodls.to/torrent.php?id=2712694 http://glodls.to/torrent.php?id=2712694 Thu, 17 Aug 2017 03:10:08 +0100 TV
[url=https://www.sparrowpics.com/image/kbFon][img]https://www.sparrowpics.com/images/2017/07/04/kbFon.png[/img][/url]

[b]Complete name : Blood.Drive.S01E10.720p.HDTV.x264-FLEET.mkv
Format : Matroska
Format version : Version 2
File size : 1.61 GiB
Duration : 42 min 33 s
Overall bit rate : 5 423 kb/s
Writing application : x264.exe
Writing library : mkv2rls x264-tv version built on 2016.10.12

Video
ID : 1
Format : AVC
Format/Info : Advanced Video Codec
Format profile : High@L4.1
Format settings, CABAC : Yes
Format settings, ReFrames : 5 frames
Codec ID : V_MPEG4/ISO/AVC
Duration : 42 min 33 s
Bit rate : 4 931 kb/s
Width : 1 280 pixels
Height : 720 pixels
Display aspect ratio : 16:9
Frame rate mode : Constant
Frame rate : 23.976 (24000/1001) FPS
Color space : YUV
Chroma subsampling : 4:2:0
Bit depth : 8 bits
Scan type : Progressive
Bits/(Pixel*Frame) : 0.223
Stream size : 1.47 GiB (91%)
Writing library : x264 core 152 r2851 ba24899
Encoding settings : cabac=1 / ref=5 / deblock=1:0:0 / analyse=0x3:0x113 / me=hex / subme=8 / psy=1 / psy_rd=1.00:0.00 / mixed_ref=1 / me_range=16 / chroma_me=1 / trellis=2 / 8x8dct=1 / cqm=0 / deadzone=21,11 / fast_pskip=1 / chroma_qp_offset=-2 / threads=18 / lookahead_threads=3 / sliced_threads=0 / nr=0 / decimate=1 / interlaced=0 / bluray_compat=0 / constrained_intra=0 / bframes=3 / b_pyramid=2 / b_adapt=1 / b_bias=0 / direct=3 / weightb=1 / open_gop=0 / weightp=2 / keyint=250 / keyint_min=23 / scenecut=40 / intra_refresh=0 / rc_lookahead=50 / rc=crf / mbtree=1 / crf=18.0 / qcomp=0.60 / qpmin=0 / qpmax=69 / qpstep=4 / ip_ratio=1.40 / aq=1:1.00
Language : English
Default : Yes
Forced : No
Color range : Limited
Matrix coefficients : BT.709

Audio
ID : 2
Format : AC-3
Format/Info : Audio Coding 3
Format settings, Endianness : Big
Codec ID : A_AC3
Duration : 42 min 33 s
Bit rate mode : Constant
Bit rate : 384 kb/s
Channel(s) : 6 channels
Channel positions : Front: L C R, Side: L R, LFE
Sampling rate : 48.0 kHz
Frame rate : 31.250 FPS (1536 spf)
Bit depth : 16 bits
Compression mode : Lossy
Stream size : 117 MiB (7%)
Language : English
Service kind : Complete Main
Default : Yes
Forced : No

Text
ID : 3
Format : UTF-8
Codec ID : S_TEXT/UTF8
Codec ID/Info : UTF-8 Plain Text
Title : English
Language : English
Default : No
Forced : No[/b]

[url=https://www.sparrowpics.com/image/kbJ5y][img]https://www.sparrowpics.com/images/2017/07/04/kbJ5y.png[/img][/url]

[URL=https://tv.sparrowpics.com/image/IEXqg][IMG]https://tv.sparrowpics.com/images/2017/08/17/IEXqg.th.jpg[/IMG][/URL]

[URL=https://tv.sparrowpics.com/image/IEzL5][b]Click To View Screenshot[/b][/URL]

[URL=https://tv.sparrowpics.com/image/IE5Xw][b]Click To View Screenshot[/b][/URL]

[URL=https://tv.sparrowpics.com/image/IEd9H][b]Click To View Screenshot[/b][/URL][/center] ]]>
The.Sinner.S01E03.HDTV.x264-SVA[ettv] http://glodls.to/torrent.php?id=2712693 http://glodls.to/torrent.php?id=2712693 Thu, 17 Aug 2017 03:07:22 +0100 TV Et TV Shows


The.Sinner.S01E03.HDTV.x264-SVA


[Format]: Matroska
[Duration]: 41mn 30s
[Resolution]: 720 x 404 pixels
[Display aspect ratio]: 16:9
[Frame rate mode]: Constant
[Frame rate]: 23.976 fps


[color=green][b]#ettv -> To avoid fakes, ALWAYS check that the torrent was added by ettv[/b][/color]




[color=green][b]To keep us going Support us by donating Bitcoin: 3MDamEmgKepqagtQe9eEdQ3NCrWEWjhoL5[/b][/color]

[b]Screens...[/b]

[url]https://extraimage.net/image/T21v[/url]
[url][/url]
[url][/url]
[url][/url]
[url][/url]
[url][/url]
]]>
The.Sinner.S01E03.720p.HDTV.x264-SVA[ettv] http://glodls.to/torrent.php?id=2712692 http://glodls.to/torrent.php?id=2712692 Thu, 17 Aug 2017 03:07:17 +0100 TV Et High-Definition TV Shows


The.Sinner.S01E03.720p.HDTV.x264-SVA


[Format]: Matroska
[Duration]: 41mn 30s
[Resolution]: 1 280 x 720 pixels
[Display aspect ratio]: 16:9
[Frame rate mode]: Constant
[Frame rate]: 23.976 fps


[color=green][b]#EtHD -> To avoid fakes, ALWAYS check that the torrent was added by EtHD[/b][/color]




[color=green][b]To keep us going Support us by donating Bitcoin: 3MDamEmgKepqagtQe9eEdQ3NCrWEWjhoL5[/b][/color]

[b]Screens...[/b]

[url]https://extraimage.net/image/T216[/url]
[url]https://extraimage.net/image/T21V[/url]
[url]https://extraimage.net/image/T21u[/url]
[url]https://extraimage.net/image/T21A[/url]
[url][/url]
[url][/url]
]]>
Snowfall.S01E07.HDTV.x264-SVA http://glodls.to/torrent.php?id=2712691 http://glodls.to/torrent.php?id=2712691 Thu, 17 Aug 2017 03:06:57 +0100 TV
[url=https://www.sparrowpics.com/image/kbFon][img]https://www.sparrowpics.com/images/2017/07/04/kbFon.png[/img][/url]

[b]Complete name : Snowfall.S01E07.HDTV.x264-SVA.mkv
Format : Matroska
Format version : Version 4 / Version 2
File size : 278 MiB
Duration : 40 min 58 s
Overall bit rate : 948 kb/s
Encoded date : UTC 2017-08-17 02:57:24
Writing application : FastLE v3.0.0 - AVS
Writing library : libx264 + libebml + libmatroska + libfastrar

Video
ID : 1
Format : AVC
Format/Info : Advanced Video Codec
Format profile : High@L3.1
Format settings, CABAC : Yes
Format settings, ReFrames : 5 frames
Codec ID : V_MPEG4/ISO/AVC
Duration : 40 min 58 s
Width : 720 pixels
Height : 404 pixels
Display aspect ratio : 16:9
Frame rate mode : Constant
Frame rate : 23.976 (24000/1001) FPS
Color space : YUV
Chroma subsampling : 4:2:0
Bit depth : 8 bits
Scan type : Progressive
Writing library : x264 core 150 r2833 df79067
Encoding settings : cabac=1 / ref=5 / deblock=1:0:0 / analyse=0x3:0x113 / me=hex / subme=8 / psy=1 / psy_rd=1.00:0.00 / mixed_ref=1 / me_range=16 / chroma_me=1 / trellis=2 / 8x8dct=1 / cqm=0 / deadzone=21,11 / fast_pskip=1 / chroma_qp_offset=-2 / threads=13 / lookahead_threads=2 / sliced_threads=0 / nr=0 / decimate=1 / interlaced=0 / bluray_compat=0 / constrained_intra=0 / bframes=3 / b_pyramid=2 / b_adapt=1 / b_bias=0 / direct=3 / weightb=1 / open_gop=0 / weightp=2 / keyint=250 / keyint_min=23 / scenecut=40 / intra_refresh=0 / rc_lookahead=50 / rc=crf / mbtree=1 / crf=19.0 / qcomp=0.60 / qpmin=0 / qpmax=69 / qpstep=4 / ip_ratio=1.40 / aq=1:1.00
Default : Yes
Forced : No
Color range : Limited
Matrix coefficients : BT.709

Audio
ID : 2
Format : AAC
Format/Info : Advanced Audio Codec
Format profile : LC
Codec ID : A_AAC
Duration : 40 min 58 s
Channel(s) : 2 channels
Channel positions : Front: L R
Sampling rate : 48.0 kHz
Frame rate : 46.875 FPS (1024 spf)
Compression mode : Lossy
Default : Yes
Forced : No[/b]

[url=https://www.sparrowpics.com/image/kbJ5y][img]https://www.sparrowpics.com/images/2017/07/04/kbJ5y.png[/img][/url]

[URL=https://tv.sparrowpics.com/image/I5Mti][IMG]https://tv.sparrowpics.com/images/2017/08/17/I5Mti.th.jpg[/IMG][/URL]

[URL=https://tv.sparrowpics.com/image/I53cm][b]Click To View Screenshot[/b][/URL]

[URL=https://tv.sparrowpics.com/image/I5xjF][b]Click To View Screenshot[/b][/URL]

[URL=https://tv.sparrowpics.com/image/IE9NA][b]Click To View Screenshot[/b][/URL][/center] ]]>
Snowfall.S01E07.720p.HDTV.x264-FLEET http://glodls.to/torrent.php?id=2712690 http://glodls.to/torrent.php?id=2712690 Thu, 17 Aug 2017 03:06:54 +0100 TV
[url=https://www.sparrowpics.com/image/kbFon][img]https://www.sparrowpics.com/images/2017/07/04/kbFon.png[/img][/url]

[b]Complete name : Snowfall.S01E07.720p.HDTV.x264-FLEET.mkv
Format : Matroska
Format version : Version 2
File size : 1.26 GiB
Duration : 40 min 58 s
Overall bit rate : 4 393 kb/s
Writing application : x264.exe
Writing library : mkv2rls x264-tv version built on 2016.10.12

Video
ID : 1
Format : AVC
Format/Info : Advanced Video Codec
Format profile : High@L4.1
Format settings, CABAC : Yes
Format settings, ReFrames : 5 frames
Codec ID : V_MPEG4/ISO/AVC
Duration : 40 min 58 s
Bit rate : 3 922 kb/s
Width : 1 280 pixels
Height : 720 pixels
Display aspect ratio : 16:9
Frame rate mode : Constant
Frame rate : 23.976 (24000/1001) FPS
Color space : YUV
Chroma subsampling : 4:2:0
Bit depth : 8 bits
Scan type : Progressive
Bits/(Pixel*Frame) : 0.177
Stream size : 1.12 GiB (89%)
Writing library : x264 core 152 r2851 ba24899
Encoding settings : cabac=1 / ref=5 / deblock=1:0:0 / analyse=0x3:0x113 / me=hex / subme=8 / psy=1 / psy_rd=1.00:0.00 / mixed_ref=1 / me_range=16 / chroma_me=1 / trellis=2 / 8x8dct=1 / cqm=0 / deadzone=21,11 / fast_pskip=1 / chroma_qp_offset=-2 / threads=18 / lookahead_threads=3 / sliced_threads=0 / nr=0 / decimate=1 / interlaced=0 / bluray_compat=0 / constrained_intra=0 / bframes=3 / b_pyramid=2 / b_adapt=1 / b_bias=0 / direct=3 / weightb=1 / open_gop=0 / weightp=2 / keyint=250 / keyint_min=23 / scenecut=40 / intra_refresh=0 / rc_lookahead=50 / rc=crf / mbtree=1 / crf=18.0 / qcomp=0.60 / qpmin=0 / qpmax=69 / qpstep=4 / ip_ratio=1.40 / aq=1:1.00
Language : English
Default : Yes
Forced : No
Color range : Limited
Matrix coefficients : BT.709

Audio
ID : 2
Format : AC-3
Format/Info : Audio Coding 3
Format settings, Endianness : Big
Codec ID : A_AC3
Duration : 40 min 58 s
Bit rate mode : Constant
Bit rate : 384 kb/s
Channel(s) : 6 channels
Channel positions : Front: L C R, Side: L R, LFE
Sampling rate : 48.0 kHz
Frame rate : 31.250 FPS (1536 spf)
Bit depth : 16 bits
Compression mode : Lossy
Stream size : 113 MiB (9%)
Language : English
Service kind : Complete Main
Default : Yes
Forced : No

Text
ID : 3
Format : UTF-8
Codec ID : S_TEXT/UTF8
Codec ID/Info : UTF-8 Plain Text
Title : English
Language : English
Default : No
Forced : No[/b]

[url=https://www.sparrowpics.com/image/kbJ5y][img]https://www.sparrowpics.com/images/2017/07/04/kbJ5y.png[/img][/url]

[URL=https://tv.sparrowpics.com/image/IEyWb][IMG]https://tv.sparrowpics.com/images/2017/08/17/IEyWb.th.jpg[/IMG][/URL]

[URL=https://tv.sparrowpics.com/image/IEU84][b]Click To View Screenshot[/b][/URL]

[URL=https://tv.sparrowpics.com/image/IEpJd][b]Click To View Screenshot[/b][/URL]

[URL=https://tv.sparrowpics.com/image/IEwPs][b]Click To View Screenshot[/b][/URL][/center] ]]>
Snowfall.S01E07.720p.HDTV.x264-AVS http://glodls.to/torrent.php?id=2712689 http://glodls.to/torrent.php?id=2712689 Thu, 17 Aug 2017 03:06:51 +0100 TV
[url=https://www.sparrowpics.com/image/kbFon][img]https://www.sparrowpics.com/images/2017/07/04/kbFon.png[/img][/url]

[b]Complete name : Snowfall.S01E07.720p.HDTV.x264-AVS.mkv
Format : Matroska
Format version : Version 4 / Version 2
File size : 1.20 GiB
Duration : 40 min 58 s
Overall bit rate : 4 203 kb/s
Encoded date : UTC 2017-08-17 02:06:42
Writing application : FastLE v3.0.0 - AVS
Writing library : libx264 + libebml + libmatroska + libfastrar

Video
ID : 1
Format : AVC
Format/Info : Advanced Video Codec
Format profile : High@L4.1
Format settings, CABAC : Yes
Format settings, ReFrames : 5 frames
Codec ID : V_MPEG4/ISO/AVC
Duration : 40 min 58 s
Bit rate : 3 735 kb/s
Width : 1 280 pixels
Height : 720 pixels
Display aspect ratio : 16:9
Frame rate mode : Constant
Frame rate : 23.976 (24000/1001) FPS
Color space : YUV
Chroma subsampling : 4:2:0
Bit depth : 8 bits
Scan type : Progressive
Bits/(Pixel*Frame) : 0.169
Stream size : 1.07 GiB (89%)
Writing library : x264 core 150 r2833 df79067
Encoding settings : cabac=1 / ref=5 / deblock=1:0:0 / analyse=0x3:0x113 / me=hex / subme=8 / psy=1 / psy_rd=1.00:0.00 / mixed_ref=1 / me_range=16 / chroma_me=1 / trellis=2 / 8x8dct=1 / cqm=0 / deadzone=21,11 / fast_pskip=1 / chroma_qp_offset=-2 / threads=22 / lookahead_threads=3 / sliced_threads=0 / nr=0 / decimate=1 / interlaced=0 / bluray_compat=0 / constrained_intra=0 / bframes=3 / b_pyramid=2 / b_adapt=1 / b_bias=0 / direct=3 / weightb=1 / open_gop=0 / weightp=2 / keyint=250 / keyint_min=23 / scenecut=40 / intra_refresh=0 / rc_lookahead=50 / rc=crf / mbtree=1 / crf=18.0 / qcomp=0.60 / qpmin=0 / qpmax=69 / qpstep=4 / ip_ratio=1.40 / aq=1:1.00
Default : Yes
Forced : No
Color range : Limited
Matrix coefficients : BT.709

Audio
ID : 2
Format : AC-3
Format/Info : Audio Coding 3
Format settings, Endianness : Big
Codec ID : A_AC3
Duration : 40 min 58 s
Bit rate mode : Constant
Bit rate : 384 kb/s
Channel(s) : 6 channels
Channel positions : Front: L C R, Side: L R, LFE
Sampling rate : 48.0 kHz
Frame rate : 31.250 FPS (1536 spf)
Bit depth : 16 bits
Compression mode : Lossy
Stream size : 113 MiB (9%)
Service kind : Complete Main
Default : Yes
Forced : No[/b]

[url=https://www.sparrowpics.com/image/kbJ5y][img]https://www.sparrowpics.com/images/2017/07/04/kbJ5y.png[/img][/url]

[URL=https://tv.sparrowpics.com/image/IEYjf][IMG]https://tv.sparrowpics.com/images/2017/08/17/IEYjf.th.jpg[/IMG][/URL]

[URL=https://tv.sparrowpics.com/image/IEQYr][b]Click To View Screenshot[/b][/URL]

[URL=https://tv.sparrowpics.com/image/IEobe][b]Click To View Screenshot[/b][/URL]

[URL=https://tv.sparrowpics.com/image/IErhB][b]Click To View Screenshot[/b][/URL][/center] ]]>
Blood.Drive.S01E10.HDTV.x264-FLEET http://glodls.to/torrent.php?id=2712688 http://glodls.to/torrent.php?id=2712688 Thu, 17 Aug 2017 03:06:47 +0100 TV
[url=https://www.sparrowpics.com/image/kbFon][img]https://www.sparrowpics.com/images/2017/07/04/kbFon.png[/img][/url]

[b]Complete name : Blood.Drive.S01E10.HDTV.x264-FLEET.mkv
Format : Matroska
Format version : Version 2
File size : 407 MiB
Duration : 42 min 33 s
Overall bit rate : 1 336 kb/s
Writing application : x264.exe
Writing library : mkv2rls x264-tv version built on 2016.10.12

Video
ID : 1
Format : AVC
Format/Info : Advanced Video Codec
Format profile : High@L3.1
Format settings, CABAC : Yes
Format settings, ReFrames : 5 frames
Codec ID : V_MPEG4/ISO/AVC
Duration : 42 min 33 s
Width : 720 pixels
Height : 404 pixels
Display aspect ratio : 16:9
Frame rate mode : Constant
Frame rate : 23.976 (24000/1001) FPS
Color space : YUV
Chroma subsampling : 4:2:0
Bit depth : 8 bits
Scan type : Progressive
Writing library : x264 core 152 r2851 ba24899
Encoding settings : cabac=1 / ref=5 / deblock=1:0:0 / analyse=0x3:0x113 / me=hex / subme=8 / psy=1 / psy_rd=1.00:0.00 / mixed_ref=1 / me_range=16 / chroma_me=1 / trellis=2 / 8x8dct=1 / cqm=0 / deadzone=21,11 / fast_pskip=1 / chroma_qp_offset=-2 / threads=13 / lookahead_threads=2 / sliced_threads=0 / nr=0 / decimate=1 / interlaced=0 / bluray_compat=0 / constrained_intra=0 / bframes=3 / b_pyramid=2 / b_adapt=1 / b_bias=0 / direct=3 / weightb=1 / open_gop=0 / weightp=2 / keyint=250 / keyint_min=23 / scenecut=40 / intra_refresh=0 / rc_lookahead=50 / rc=crf / mbtree=1 / crf=19.0 / qcomp=0.60 / qpmin=0 / qpmax=69 / qpstep=4 / ip_ratio=1.40 / aq=1:1.00
Language : English
Default : Yes
Forced : No
Color range : Limited
Matrix coefficients : BT.709

Audio
ID : 2
Format : AAC
Format/Info : Advanced Audio Codec
Format profile : LC
Codec ID : A_AAC
Duration : 42 min 33 s
Channel(s) : 2 channels
Channel positions : Front: L R
Sampling rate : 48.0 kHz
Frame rate : 46.875 FPS (1024 spf)
Compression mode : Lossy
Language : English
Default : Yes
Forced : No[/b]

[url=https://www.sparrowpics.com/image/kbJ5y][img]https://www.sparrowpics.com/images/2017/07/04/kbJ5y.png[/img][/url]

[URL=https://tv.sparrowpics.com/image/I5Rb8][IMG]https://tv.sparrowpics.com/images/2017/08/17/I5Rb8.th.jpg[/IMG][/URL]

[URL=https://tv.sparrowpics.com/image/I5TdO][b]Click To View Screenshot[/b][/URL]

[URL=https://tv.sparrowpics.com/image/I5iaJ][b]Click To View Screenshot[/b][/URL]

[URL=https://tv.sparrowpics.com/image/I5jpG][b]Click To View Screenshot[/b][/URL][/center] ]]>
Blood.Drive.S01E10.720p.HDTV.x264-AVS http://glodls.to/torrent.php?id=2712687 http://glodls.to/torrent.php?id=2712687 Thu, 17 Aug 2017 03:06:44 +0100 TV
[url=https://www.sparrowpics.com/image/kbFon][img]https://www.sparrowpics.com/images/2017/07/04/kbFon.png[/img][/url]

[b]Complete name : Blood.Drive.S01E10.720p.HDTV.x264-AVS.mkv
Format : Matroska
Format version : Version 4 / Version 2
File size : 1.41 GiB
Duration : 42 min 30 s
Overall bit rate : 4 739 kb/s
Encoded date : UTC 2017-08-17 02:05:52
Writing application : FastLE v3.0.0 - AVS
Writing library : libx264 + libebml + libmatroska + libfastrar

Video
ID : 1
Format : AVC
Format/Info : Advanced Video Codec
Format profile : High@L4.1
Format settings, CABAC : Yes
Format settings, ReFrames : 5 frames
Codec ID : V_MPEG4/ISO/AVC
Duration : 42 min 30 s
Bit rate : 4 261 kb/s
Width : 1 280 pixels
Height : 718 pixels
Display aspect ratio : 16:9
Frame rate mode : Constant
Frame rate : 23.976 (24000/1001) FPS
Color space : YUV
Chroma subsampling : 4:2:0
Bit depth : 8 bits
Scan type : Progressive
Bits/(Pixel*Frame) : 0.193
Stream size : 1.27 GiB (90%)
Writing library : x264 core 152 r2851 ba24899
Encoding settings : cabac=1 / ref=5 / deblock=1:0:0 / analyse=0x3:0x113 / me=hex / subme=8 / psy=1 / psy_rd=1.00:0.00 / mixed_ref=1 / me_range=16 / chroma_me=1 / trellis=2 / 8x8dct=1 / cqm=0 / deadzone=21,11 / fast_pskip=1 / chroma_qp_offset=-2 / threads=22 / lookahead_threads=3 / sliced_threads=0 / nr=0 / decimate=1 / interlaced=0 / bluray_compat=0 / constrained_intra=0 / bframes=3 / b_pyramid=2 / b_adapt=1 / b_bias=0 / direct=3 / weightb=1 / open_gop=0 / weightp=2 / keyint=250 / keyint_min=23 / scenecut=40 / intra_refresh=0 / rc_lookahead=50 / rc=crf / mbtree=1 / crf=18.0 / qcomp=0.60 / qpmin=0 / qpmax=69 / qpstep=4 / ip_ratio=1.40 / aq=1:1.00
Default : Yes
Forced : No
Color range : Limited
Matrix coefficients : BT.709

Audio
ID : 2
Format : AC-3
Format/Info : Audio Coding 3
Format settings, Endianness : Big
Codec ID : A_AC3
Duration : 42 min 30 s
Bit rate mode : Constant
Bit rate : 384 kb/s
Channel(s) : 6 channels
Channel positions : Front: L C R, Side: L R, LFE
Sampling rate : 48.0 kHz
Frame rate : 31.250 FPS (1536 spf)
Bit depth : 16 bits
Compression mode : Lossy
Stream size : 117 MiB (8%)
Service kind : Complete Main
Default : Yes
Forced : No[/b]

[url=https://www.sparrowpics.com/image/kbJ5y][img]https://www.sparrowpics.com/images/2017/07/04/kbJ5y.png[/img][/url]

[URL=https://tv.sparrowpics.com/image/IEaa5][IMG]https://tv.sparrowpics.com/images/2017/08/17/IEaa5.th.jpg[/IMG][/URL]

[URL=https://tv.sparrowpics.com/image/IEgww][b]Click To View Screenshot[/b][/URL]

[URL=https://tv.sparrowpics.com/image/IEqWH][b]Click To View Screenshot[/b][/URL]

[URL=https://tv.sparrowpics.com/image/IE4x0][b]Click To View Screenshot[/b][/URL][/center] ]]>
Blood.Drive.S01E10.HDTV.x264-SVA[ettv] http://glodls.to/torrent.php?id=2712686 http://glodls.to/torrent.php?id=2712686 Thu, 17 Aug 2017 03:05:43 +0100 TV Et TV Shows


Blood.Drive.S01E10.HDTV.x264-SVA


[Format]: Matroska
[Duration]: 42mn 30s
[Resolution]: 720 x 404 pixels
[Display aspect ratio]: 16:9
[Frame rate mode]: Constant
[Frame rate]: 23.976 fps


[color=green][b]#ettv -> To avoid fakes, ALWAYS check that the torrent was added by ettv[/b][/color]




[color=green][b]To keep us going Support us by donating Bitcoin: 3MDamEmgKepqagtQe9eEdQ3NCrWEWjhoL5[/b][/color]

[b]Screens...[/b]

[url]https://extraimage.net/image/T21t[/url]
[url][/url]
[url][/url]
[url][/url]
[url][/url]
[url][/url]
]]>
Snowfall.S01E07.HDTV.x264-SVA[ettv] http://glodls.to/torrent.php?id=2712685 http://glodls.to/torrent.php?id=2712685 Thu, 17 Aug 2017 03:03:39 +0100 TV Et TV Shows


Snowfall.S01E07.HDTV.x264-SVA


[Format]: Matroska
[Duration]: 40mn 58s
[Resolution]: 720 x 404 pixels
[Display aspect ratio]: 16:9
[Frame rate mode]: Constant
[Frame rate]: 23.976 fps


[color=green][b]#ettv -> To avoid fakes, ALWAYS check that the torrent was added by ettv[/b][/color]




[color=green][b]To keep us going Support us by donating Bitcoin: 3MDamEmgKepqagtQe9eEdQ3NCrWEWjhoL5[/b][/color]

[b]Screens...[/b]

[url]https://extraimage.net/image/T21H[/url]
[url][/url]
[url][/url]
[url][/url]
[url][/url]
[url][/url]
]]>
Blood.Drive.S01E10.720p.HDTV.x264-AVS[ettv] http://glodls.to/torrent.php?id=2712684 http://glodls.to/torrent.php?id=2712684 Thu, 17 Aug 2017 03:03:18 +0100 TV Et High-Definition TV Shows


Blood.Drive.S01E10.720p.HDTV.x264-AVS


[Format]: Matroska
[Duration]: 42mn 30s
[Resolution]: 1 280 x 718 pixels
[Display aspect ratio]: 16:9
[Frame rate mode]: Constant
[Frame rate]: 23.976 fps


[color=green][b]#EtHD -> To avoid fakes, ALWAYS check that the torrent was added by EtHD[/b][/color]




[color=green][b]To keep us going Support us by donating Bitcoin: 3MDamEmgKepqagtQe9eEdQ3NCrWEWjhoL5[/b][/color]

[b]Screens...[/b]

[url]https://extraimage.net/image/T21D[/url]
[url]https://extraimage.net/image/T21F[/url]
[url]https://extraimage.net/image/T21k[/url]
[url]https://extraimage.net/image/T21o[/url]
[url][/url]
[url][/url]
]]>
Snowfall.S01E07.HDTV.x264-FLEET http://glodls.to/torrent.php?id=2712683 http://glodls.to/torrent.php?id=2712683 Thu, 17 Aug 2017 03:01:55 +0100 TV
[url=https://www.sparrowpics.com/image/kbFon][img]https://www.sparrowpics.com/images/2017/07/04/kbFon.png[/img][/url]

[b]Complete name : Snowfall.S01E07.HDTV.x264-FLEET.mkv
Format : Matroska
Format version : Version 2
File size : 277 MiB
Duration : 40 min 58 s
Overall bit rate : 944 kb/s
Writing application : x264.exe
Writing library : mkv2rls x264-tv version built on 2016.10.12

Video
ID : 1
Format : AVC
Format/Info : Advanced Video Codec
Format profile : High@L3.1
Format settings, CABAC : Yes
Format settings, ReFrames : 5 frames
Codec ID : V_MPEG4/ISO/AVC
Duration : 40 min 58 s
Width : 720 pixels
Height : 404 pixels
Display aspect ratio : 16:9
Frame rate mode : Constant
Frame rate : 23.976 (24000/1001) FPS
Color space : YUV
Chroma subsampling : 4:2:0
Bit depth : 8 bits
Scan type : Progressive
Writing library : x264 core 152 r2851 ba24899
Encoding settings : cabac=1 / ref=5 / deblock=1:0:0 / analyse=0x3:0x113 / me=hex / subme=8 / psy=1 / psy_rd=1.00:0.00 / mixed_ref=1 / me_range=16 / chroma_me=1 / trellis=2 / 8x8dct=1 / cqm=0 / deadzone=21,11 / fast_pskip=1 / chroma_qp_offset=-2 / threads=13 / lookahead_threads=2 / sliced_threads=0 / nr=0 / decimate=1 / interlaced=0 / bluray_compat=0 / constrained_intra=0 / bframes=3 / b_pyramid=2 / b_adapt=1 / b_bias=0 / direct=3 / weightb=1 / open_gop=0 / weightp=2 / keyint=250 / keyint_min=23 / scenecut=40 / intra_refresh=0 / rc_lookahead=50 / rc=crf / mbtree=1 / crf=19.0 / qcomp=0.60 / qpmin=0 / qpmax=69 / qpstep=4 / ip_ratio=1.40 / aq=1:1.00
Language : English
Default : Yes
Forced : No
Color range : Limited
Matrix coefficients : BT.709

Audio
ID : 2
Format : AAC
Format/Info : Advanced Audio Codec
Format profile : LC
Codec ID : A_AAC
Duration : 40 min 58 s
Channel(s) : 2 channels
Channel positions : Front: L R
Sampling rate : 48.0 kHz
Frame rate : 46.875 FPS (1024 spf)
Compression mode : Lossy
Language : English
Default : Yes
Forced : No[/b]

[url=https://www.sparrowpics.com/image/kbJ5y][img]https://www.sparrowpics.com/images/2017/07/04/kbJ5y.png[/img][/url]

[URL=https://tv.sparrowpics.com/image/I5W04][IMG]https://tv.sparrowpics.com/images/2017/08/17/I5W04.th.jpg[/IMG][/URL]

[URL=https://tv.sparrowpics.com/image/I5X3d][b]Click To View Screenshot[/b][/URL]

[URL=https://tv.sparrowpics.com/image/I55ts][b]Click To View Screenshot[/b][/URL]

[URL=https://tv.sparrowpics.com/image/I5EcK][b]Click To View Screenshot[/b][/URL][/center] ]]>
Snowfall.S01E07.720p.HDTV.x264-AVS[ettv] http://glodls.to/torrent.php?id=2712682 http://glodls.to/torrent.php?id=2712682 Thu, 17 Aug 2017 03:01:19 +0100 TV Et High-Definition TV Shows


Snowfall.S01E07.720p.HDTV.x264-AVS


[Format]: Matroska
[Duration]: 40mn 58s
[Resolution]: 1 280 x 720 pixels
[Display aspect ratio]: 16:9
[Frame rate mode]: Constant
[Frame rate]: 23.976 fps


[color=green][b]#EtHD -> To avoid fakes, ALWAYS check that the torrent was added by EtHD[/b][/color]




[color=green][b]To keep us going Support us by donating Bitcoin: 3MDamEmgKepqagtQe9eEdQ3NCrWEWjhoL5[/b][/color]

[b]Screens...[/b]

[url]https://extraimage.net/image/T21P[/url]
[url]https://extraimage.net/image/T21X[/url]
[url]https://extraimage.net/image/T21g[/url]
[url]https://extraimage.net/image/T215[/url]
[url][/url]
[url][/url]
]]>
[Tiny4k]Naomi Woods - Teeny Yoga Facial(NEW***17 08 2017) http://glodls.to/torrent.php?id=2712681 http://glodls.to/torrent.php?id=2712681 Thu, 17 Aug 2017 03:01:16 +0100 Adult XXX [size=4]

Naomi Woods - Teeny Yoga Facial
Category: all sex
Size: 361156916 bytes (344.43 MiB), duration: 00:29:43, avg.bitrate: 1620 kb/s
Audio: aac, 48000 Hz, 2 channels, s16, 96 kb/s (und)
Video: h264, yuv420p, 852x480, 1521 kb/s, 29.97 fps(r) (und)

[b]SCREENS:[/b]

[url]http://damimage.com/img-599506692f0ae.html[/url]
[url]https://img.yt/img-5995067a447bf.html[/url]

[b]SHOOT:[/b]
[url]http://imageteam.org/img-5995068b6d2b7.html[/url]
[/size]
[/center] ]]>
Suits S07E06 HDTV x264-SVA http://glodls.to/torrent.php?id=2712636 http://glodls.to/torrent.php?id=2712636 Thu, 17 Aug 2017 03:00:13 +0100 TV http://www.tvrage.com/schedule.php?show_yesterday=1. ]]> Marlon S01E02 720p HDTV x264-AVS http://glodls.to/torrent.php?id=2712635 http://glodls.to/torrent.php?id=2712635 Thu, 17 Aug 2017 03:00:12 +0100 TV http://www.tvrage.com/schedule.php?show_yesterday=1. ]]> Marlon S01E02 HDTV x264-SVA http://glodls.to/torrent.php?id=2712634 http://glodls.to/torrent.php?id=2712634 Thu, 17 Aug 2017 03:00:10 +0100 TV http://www.tvrage.com/schedule.php?show_yesterday=1. ]]> Marlon S01E02 720p HDTV x264-FLEET http://glodls.to/torrent.php?id=2712633 http://glodls.to/torrent.php?id=2712633 Thu, 17 Aug 2017 03:00:08 +0100 TV http://www.tvrage.com/schedule.php?show_yesterday=1. ]]> Marlon S01E02 HDTV x264-FLEET http://glodls.to/torrent.php?id=2712632 http://glodls.to/torrent.php?id=2712632 Thu, 17 Aug 2017 03:00:07 +0100 TV http://www.tvrage.com/schedule.php?show_yesterday=1. ]]> Huangs World 2016 S02E08 WEB x264-TBS http://glodls.to/torrent.php?id=2712631 http://glodls.to/torrent.php?id=2712631 Thu, 17 Aug 2017 03:00:06 +0100 TV http://www.tvrage.com/schedule.php?show_yesterday=1. ]]> Cara et Lucy Escortes de Luxe [Marc Dorcel]2017/WEBRip/SD http://glodls.to/torrent.php?id=2712630 http://glodls.to/torrent.php?id=2712630 Thu, 17 Aug 2017 02:55:25 +0100 Adult XXX [center][URL=http://imageteam.org/img-5995031f3c8c2.html][IMG]http://imageteam.org/upload/small/2017/08/17/5995031f3c886.jpg[/IMG][/URL]
[size=4]

Stars: Anna Polina, Mina Sauvage, Lucy Heart, Cara Saint Germain, Clea Gaultier, Rico Simmons
Category: Feature, Big Tits, Big Asses, DP, Oral, Threesome, Lingerie, Anal, Big Dick
File size: 852 MB
Duration: 02:00:43

[b]SCREENS:[/b]

[url]http://imageteam.org/img-59950329b54ef.html[/url]
[url]https://img.yt/img-5995033b90424.html[/url]

[b]SHOOT:[/b]
[url]http://damimage.com/img-599505428ce01.html[/url]
[/size]
[/center] ]]>
Big.Brother.US.S19E23.HDTV.x264-F43[ettv] http://glodls.to/torrent.php?id=2712629 http://glodls.to/torrent.php?id=2712629 Thu, 17 Aug 2017 02:51:33 +0100 TV Et TV Shows


Big.Brother.US.S19E23.HDTV.x264-F43


[Format]: Matroska
[Duration]: 42mn 56s
[Resolution]: 720 x 404 pixels
[Display aspect ratio]: 16:9
[Frame rate mode]: Constant
[Frame rate]: 60.000 fps
[Original frame rate]: 59.940 fps


[color=green][b]#ettv -> To avoid fakes, ALWAYS check that the torrent was added by ettv[/b][/color]




[color=green][b]To keep us going Support us by donating Bitcoin: 3MDamEmgKepqagtQe9eEdQ3NCrWEWjhoL5[/b][/color]

[b]Screens...[/b]

[url]https://extraimage.net/image/T21G[/url]
[url][/url]
[url][/url]
[url][/url]
[url][/url]
[url][/url]
]]>
YoungBusty 17 06 12 Nicole Love Hardcore XXX 480p MP4-TK http://glodls.to/torrent.php?id=2712628 http://glodls.to/torrent.php?id=2712628 Thu, 17 Aug 2017 02:49:18 +0100 Adult XXX
[b]Screenshots:[/b]

[url]http://imgking.co/imgs-5995042f509ac.html[/url]

[url]http://imgking.co/imgs-5995042f4dd3b.html[/url]

[url]http://imgking.co/imgs-5995042f47fab.html[/url]

[url]http://imgking.co/imgs-5995042e114fe.html[/url]

File Size : 294 MiB
Duration : 35mn 45s
Video : h264, yuv420p, 854x480p, 1024 Kbps
Audio : aac , 2 ch, stereo , 128 Kbps ]]>
YoungBusty 17 05 22 Antonia S Hardcore XXX 480p MP4-TK http://glodls.to/torrent.php?id=2712627 http://glodls.to/torrent.php?id=2712627 Thu, 17 Aug 2017 02:43:55 +0100 Adult XXX
[b]Screenshots:[/b]

[url]http://imgking.co/imgs-599502eca17b3.html[/url]

[url]http://imgking.co/imgs-599502ec9eaea.html[/url]

[url]http://imgking.co/imgs-599502ec9be9c.html[/url]

[url]http://imgking.co/imgs-599502eba9825.html[/url]

File Size : 261 MiB
Duration : 31mn 43s
Video : h264, yuv420p, 854x480p, 1024 Kbps
Audio : aac , 2 ch, stereo , 128 Kbps ]]>
YoungBusty 17 02 27 Nicole Love Hardcore XXX 480p MP4-TK http://glodls.to/torrent.php?id=2712626 http://glodls.to/torrent.php?id=2712626 Thu, 17 Aug 2017 02:42:30 +0100 Adult XXX
[b]Screenshots:[/b]

[url]http://imgking.co/imgs-599502980bb9a.html[/url]

[url]http://imgking.co/imgs-59950298088e8.html[/url]

[url]http://imgking.co/imgs-599502980539b.html[/url]

[url]http://imgking.co/imgs-5995029707939.html[/url]

File Size : 311 MiB
Duration : 37mn 40s
Video : h264, yuv420p, 854x480p, 1024 Kbps
Audio : aac , 2 ch, stereo , 128 Kbps ]]>
[JulesJordanVideo]Jayden Jaymes - Top Bottoms, Scene 4 http://glodls.to/torrent.php?id=2712625 http://glodls.to/torrent.php?id=2712625 Thu, 17 Aug 2017 02:42:22 +0100 Adult XXX [size=4]

Jayden Jaymes - Top Bottoms, Scene 4
Category: Gonzo, 1 On 1, Anal, Facial
File size: 439 MB
Duration: 00:36:01

[b]SCREENS:[/b]

[url]http://imagedecode.com/img-599500e268540.html[/url]
[url]https://img.yt/img-5995010589112.html[/url]

[b]SHOOT:[/b]
[url]http://damimage.com/img-59950230ccf77.html[/url]
[/size]
[/center] ]]>
YoungBusty 17 08 07 Naomi J Hardcore XXX 480p MP4-TK http://glodls.to/torrent.php?id=2712624 http://glodls.to/torrent.php?id=2712624 Thu, 17 Aug 2017 02:40:56 +0100 Adult XXX
[b]Screenshots:[/b]

[url]http://imgking.co/imgs-599502394a78f.html[/url]

[url]http://imgking.co/imgs-5995023947a16.html[/url]

[url]http://imgking.co/imgs-5995023944ee3.html[/url]

[url]http://imgking.co/imgs-59950237ce735.html[/url]

File Size : 193 MiB
Duration : 23mn 23s
Video : h264, yuv420p, 854x480p, 1024 Kbps
Audio : aac , 2 ch, stereo , 128 Kbps ]]>
YoungBusty 17 07 10 Dai Hardcore XXX 480p MP4-TK http://glodls.to/torrent.php?id=2712623 http://glodls.to/torrent.php?id=2712623 Thu, 17 Aug 2017 02:40:02 +0100 Adult XXX
[b]Screenshots:[/b]

[url]http://imgking.co/imgs-599502036b230.html[/url]

[url]http://imgking.co/imgs-59950203686a3.html[/url]

[url]http://imgking.co/imgs-5995020365a7c.html[/url]

[url]http://imgking.co/imgs-599502026f7b7.html[/url]

File Size : 214 MiB
Duration : 25mn 51s
Video : h264, yuv420p, 854x480p, 1024 Kbps
Audio : aac , 2 ch, stereo , 128 Kbps ]]>
YoungBusty 17 07 24 Sasha M Hardcore XXX 480p MP4-TK http://glodls.to/torrent.php?id=2712622 http://glodls.to/torrent.php?id=2712622 Thu, 17 Aug 2017 02:39:48 +0100 Adult XXX
[b]Screenshots:[/b]

[url]http://imgking.co/imgs-599501f56cd3f.html[/url]

[url]http://imgking.co/imgs-599501f56a1e1.html[/url]

[url]http://imgking.co/imgs-599501f562f49.html[/url]

[url]http://imgking.co/imgs-599501f4265d2.html[/url]

File Size : 207 MiB
Duration : 25mn 10s
Video : h264, yuv420p, 854x480p, 1024 Kbps
Audio : aac , 2 ch, stereo , 128 Kbps ]]>
YoungBusty 17 05 01 Nicoletta H Hardcore XXX 480p MP4-TK http://glodls.to/torrent.php?id=2712621 http://glodls.to/torrent.php?id=2712621 Thu, 17 Aug 2017 02:38:09 +0100 Adult XXX
[b]Screenshots:[/b]

[url]http://imgking.co/imgs-599501923a608.html[/url]

[url]http://imgking.co/imgs-59950192366fe.html[/url]

[url]http://imgking.co/imgs-599501923293d.html[/url]

[url]http://imgking.co/imgs-59950191038f5.html[/url]

File Size : 216 MiB
Duration : 25mn 57s
Video : h264, yuv420p, 854x480p, 1024 Kbps
Audio : aac , 2 ch, stereo , 128 Kbps ]]>
YoungBusty 17 03 20 Chrissy Fox Hardcore XXX 480p MP4-TK http://glodls.to/torrent.php?id=2712620 http://glodls.to/torrent.php?id=2712620 Thu, 17 Aug 2017 02:36:53 +0100 Adult XXX
[b]Screenshots:[/b]

[url]http://imgking.co/imgs-59950146da81a.html[/url]

[url]http://imgking.co/imgs-59950146d5bcc.html[/url]

[url]http://imgking.co/imgs-59950146cf1b1.html[/url]

[url]http://imgking.co/imgs-599501456e38d.html[/url]

File Size : 251 MiB
Duration : 30mn 24s
Video : h264, yuv420p, 854x480p, 1024 Kbps
Audio : aac , 2 ch, stereo , 128 Kbps ]]>
YoungBusty 17 06 22 Amber H Hardcore XXX 480p MP4-TK http://glodls.to/torrent.php?id=2712619 http://glodls.to/torrent.php?id=2712619 Thu, 17 Aug 2017 02:33:27 +0100 Adult XXX
[b]Screenshots:[/b]

[url]http://imgking.co/imgs-59950078edaab.html[/url]

[url]http://imgking.co/imgs-59950078ead93.html[/url]

[url]http://imgking.co/imgs-59950078e7b66.html[/url]

[url]http://imgking.co/imgs-599500778e9ca.html[/url]

File Size : 173 MiB
Duration : 20mn 58s
Video : h264, yuv420p, 854x480p, 1024 Kbps
Audio : aac , 2 ch, stereo , 128 Kbps ]]>
YoungBusty 17 04 24 Anabelle Hardcore XXX 480p MP4-TK http://glodls.to/torrent.php?id=2712618 http://glodls.to/torrent.php?id=2712618 Thu, 17 Aug 2017 02:32:26 +0100 Adult XXX
[b]Screenshots:[/b]

[url]http://imgking.co/imgs-5995003c12b30.html[/url]

[url]http://imgking.co/imgs-5995003c0ffbd.html[/url]

[url]http://imgking.co/imgs-5995003c0a757.html[/url]

[url]http://imgking.co/imgs-5995003a99009.html[/url]

File Size : 210 MiB
Duration : 25mn 29s
Video : h264, yuv420p, 854x480p, 1024 Kbps
Audio : aac , 2 ch, stereo , 128 Kbps ]]>
YoungBusty 17 04 03 Sabrina M Hardcore XXX 480p MP4-TK http://glodls.to/torrent.php?id=2712617 http://glodls.to/torrent.php?id=2712617 Thu, 17 Aug 2017 02:25:00 +0100 Adult XXX
[b]Screenshots:[/b]

[url]http://imgking.co/imgs-5994fe7d3c631.html[/url]

[url]http://imgking.co/imgs-5994fe7d399b9.html[/url]

[url]http://imgking.co/imgs-5994fe7d36d07.html[/url]

[url]http://imgking.co/imgs-5994fe7ba5a25.html[/url]

File Size : 181 MiB
Duration : 21mn 45s
Video : h264, yuv420p, 854x480p, 1024 Kbps
Audio : aac , 2 ch, stereo , 128 Kbps ]]>
No Contest 1995 DVDRip XViD http://glodls.to/torrent.php?id=2712616 http://glodls.to/torrent.php?id=2712616 Thu, 17 Aug 2017 02:21:03 +0100 Movies RELEASED:
5 November 1995

IMDB: http://www.imdb.com/title/tt0849079/



Size: 1066296414 bytes (1016.90 MiB), duration: 01:39:30, avg.bitrate: 1429 kb/s
Audio: mp3, 48000 Hz, stereo, 128 kb/s
Video: mpeg4, yuv420p, 720x404, 29.97 fps(r)




SCREENS:
[url=http://tinizo.com/img-5994fd8f18441.html][img]http://tinizo.com/upload/small/2017/08/17/5994fd8f1840a.jpg[/img][/url]

[url]http://tinizo.com/img-5994fd8f1ad03.html[/url]

[url]http://tinizo.com/img-5994fd8f1d026.html[/url]


DOWNLOAD AND ENJOY.

KEEP IT FOR LONG SEEDING TO HELP OTHERS


Thanks to encoder
Movie Share ]]>
YoungBusty 17 03 06 Jenny N Hardcore XXX 480p MP4-TK http://glodls.to/torrent.php?id=2712615 http://glodls.to/torrent.php?id=2712615 Thu, 17 Aug 2017 02:18:52 +0100 Adult XXX [b]Screenshots:[/b]

[url]http://imgking.co/imgs-5994fd0743863.html[/url]

File Size : 179 MiB
Duration : 21mn 35s
Video : h264, yuv420p, 854x480p, 1024 Kbps
Audio : aac , 2 ch, stereo , 128 Kbps ]]>
YoungBusty 17 01 16 Silvie A Hardcore XXX 480p MP4-TK http://glodls.to/torrent.php?id=2712614 http://glodls.to/torrent.php?id=2712614 Thu, 17 Aug 2017 02:17:37 +0100 Adult XXX
[b]Screenshots:[/b]

[url]http://imgking.co/imgs-5994fcc25622f.html[/url]

[url]http://imgking.co/imgs-5994fcc252ff2.html[/url]

[url]http://imgking.co/imgs-5994fcc25045e.html[/url]

[url]http://imgking.co/imgs-5994fcae36eab.html[/url]

File Size : 194 MiB
Duration : 23mn 34s
Video : h264, yuv420p, 854x480p, 1024 Kbps
Audio : aac , 2 ch, stereo , 128 Kbps ]]>